<?xml version="1.0" encoding="UTF-8" standalone="no"?> <svg xmlns="http://www.w3.org/2000/svg" xmlns:xlink="http://www.w3.org/1999/xlink" version="1.1"><metadata> Created by FontForge 20190801 at Mon Apr 9 18:23:54 2018 By Jimmy Wärting Copyright (c) 2018 by Fahd Al Fraikh. All Rights Reserved. </metadata><defs><font id="FFShamelFamily-SansOneBook"><glyph glyph-name="uniFEFB" unicode="ﻟﺎ" d="M652 734v-734h-584v74h230l-168 540h80l168 -540h197v660h77z"></glyph><glyph glyph-name="uniFEFC" unicode="ﻠﺎ" d="M692 115q40 -41 121 -41v-74q-143 0 -193 104q-29 -51 -81.5 -77.5t-125.5 -26.5h-345v74h230l-168 540h80l168 -540h35q162 0 162 165v495h77v-495q0 -83 40 -124z"></glyph><glyph glyph-name="uniFEF7" unicode="ﻟﺄ" d="M652 734v-734h-584v74h230l-168 540h80l168 -540h197v660h77zM306 697h-217v59h28q-24 23 -24 62q0 40 33.5 69t82.5 29q33 0 71 -18l-29 -54q-21 9 -42 9q-23 0 -37 -12.5t-14 -32.5q0 -23 17 -37.5t42 -14.5h89v-59z"></glyph><glyph glyph-name="uniFEF8" unicode="ﻠﺄ" d="M692 115q40 -41 121 -41v-74q-143 0 -193 104q-29 -51 -81.5 -77.5t-125.5 -26.5h-345v74h230l-168 540h80l168 -540h35q162 0 162 165v495h77v-495q0 -83 40 -124zM306 697h-217v59h28q-24 23 -24 62q0 40 33.5 69t82.5 29q33 0 71 -18l-29 -54q-21 9 -42 9 q-23 0 -37 -12.5t-14 -32.5q0 -23 17 -37.5t42 -14.5h89v-59z"></glyph><glyph glyph-name="uniFEF9" unicode="ﻟﺈ" d="M652 734v-734h-584v74h230l-168 540h80l168 -540h197v660h77zM356 -308h-217v59h28q-24 22 -24 62t33.5 69t82.5 29q34 0 71 -18l-29 -54q-21 9 -42 9q-23 0 -37 -12.5t-14 -32.5q0 -23 17 -37.5t42 -14.5h89v-59z"></glyph><glyph glyph-name="uniFEFA" unicode="ﻠﺈ" d="M692 115q40 -41 121 -41v-74q-143 0 -193 104q-29 -51 -81.5 -77.5t-125.5 -26.5h-345v74h230l-168 540h80l168 -540h35q162 0 162 165v495h77v-495q0 -83 40 -124zM356 -308h-217v59h28q-24 22 -24 62t33.5 69t82.5 29q34 0 71 -18l-29 -54q-21 9 -42 9q-23 0 -37 -12.5 t-14 -32.5q0 -23 17 -37.5t42 -14.5h89v-59z"></glyph><glyph glyph-name="uniFEF5" unicode="ﻟﺂ" d="M652 734v-734h-584v74h230l-168 540h80l168 -540h197v660h77zM67 700v32q0 44 22 70.5t59 26.5q23 0 40.5 -8.5t30 -17.5t15.5 -12q20 -14 33 -20t30 -6q13 0 18.5 7.5t5.5 26.5v33h64v-33q0 -46 -23.5 -72.5t-64.5 -26.5q-29 0 -48.5 9.5t-50.5 29.5l-17 11 q-8 6 -15.5 10.5t-13.5 4.5q-20 0 -20 -33v-32h-65z"></glyph><glyph glyph-name="uniFEF6" unicode="ﻠﺂ" d="M692 115q40 -41 121 -41v-74q-143 0 -193 104q-29 -51 -81.5 -77.5t-125.5 -26.5h-345v74h230l-168 540h80l168 -540h35q162 0 162 165v495h77v-495q0 -83 40 -124zM67 700v32q0 44 22 70.5t59 26.5q23 0 40.5 -8.5t30 -17.5t15.5 -12q20 -14 33 -20t30 -6q13 0 18.5 7.5 t5.5 26.5v33h64v-33q0 -46 -23.5 -72.5t-64.5 -26.5q-29 0 -48.5 9.5t-50.5 29.5l-17 11q-8 6 -15.5 10.5t-13.5 4.5q-20 0 -20 -33v-32h-65z"></glyph><glyph glyph-name="uniFE8E" unicode="ا" d="M306 74v-74h-238v734h77v-660h161z"></glyph><glyph glyph-name="uniFE84" unicode="أ" d="M240 751h-217v59h28q-24 23 -24 62q0 40 33.5 69t82.5 29q34 0 71 -18l-29 -54q-21 9 -42 9q-23 0 -37 -12.5t-14 -32.5q0 -23 17 -37.5t42 -14.5h89v-59zM329 74v-74h-238v664h77v-590h161z"></glyph><glyph glyph-name="uniFE88" unicode="إ" d="M306 74v-74h-238v734h77v-660h161zM236 -317h-217v59h28q-24 22 -24 62t33.5 69t82.5 29q34 0 71 -18l-29 -54q-21 9 -42 9q-23 0 -37 -12.5t-14 -32.5q0 -23 17 -37.5t42 -14.5h89v-59z"></glyph><glyph glyph-name="uniFE82" unicode="آ" d="M306 74v-74h-238v734h77v-660h161zM-14 835v32q0 44 22 70.5t59 26.5q23 0 40.5 -8.5t30 -17.5t15.5 -12q20 -14 33 -20t30 -6q13 0 18.5 7.5t5.5 26.5v33h64v-33q0 -46 -23.5 -72.5t-64.5 -26.5q-29 0 -48.5 9.5t-50.5 29.5l-17 11q-8 6 -15.5 10.5t-13.5 4.5 q-20 0 -20 -33v-32h-65z"></glyph><glyph glyph-name="uni066E.init" unicode="ٮ" d="M162 460h77v-460h-239q-19 0 -31 11t-12 28q0 16 11.5 25.5t31.5 9.5h162v386z"></glyph><glyph glyph-name="uni066E.medi" unicode="ٮ" d="M279 115q40 -41 121 -41v-74q-143 0 -193 104q-29 -51 -81.5 -77.5t-125.5 -26.5q-19 0 -31 11t-12 28q0 16 11.5 25.5t31.5 9.5q162 0 162 165v221h77v-221q0 -83 40 -124z"></glyph><glyph glyph-name="uni066E.fina" unicode="ٮ" d="M926 115q40 -41 121 -41v-74q-144 0 -192 104q-29 -51 -82 -77.5t-126 -26.5h-266q-96 0 -165 33t-105 94t-36 143q0 63 23 140h77q-22 -70 -22 -132q0 -97 58.5 -150.5t169.5 -53.5h266q162 0 162 165v221h77v-221q0 -83 40 -124z"></glyph><glyph glyph-name="uniFE90" unicode="ب" d="M445 -169.5q-14 13.5 -14 33.5q0 19 14 32.5t33 13.5t32.5 -13.5t13.5 -32.5t-13.5 -33t-32.5 -14t-33 13.5zM926 115q40 -41 121 -41v-74q-144 0 -192 104q-29 -51 -82 -77.5t-126 -26.5h-266q-96 0 -165 33t-105 94t-36 143q0 63 23 140h77q-22 -70 -22 -132 q0 -97 58.5 -150.5t169.5 -53.5h266q162 0 162 165v221h77v-221q0 -83 40 -124z"></glyph><glyph glyph-name="uniFE92" unicode="ب" d="M279 115q40 -41 121 -41v-74q-143 0 -193 104q-29 -51 -81.5 -77.5t-125.5 -26.5q-19 0 -31 11t-12 28q0 16 11.5 25.5t31.5 9.5q162 0 162 165v221h77v-221q0 -83 40 -124zM167 -168.5q-14 13.5 -14 33.5q0 19 14 32.5t33 13.5t32.5 -13.5t13.5 -32.5t-13.5 -33 t-32.5 -14t-33 13.5z"></glyph><glyph glyph-name="uniFE91" unicode="ب" d="M162 460h77v-460h-239q-19 0 -31 11t-12 28q0 16 11.5 25.5t31.5 9.5h162v386zM110 -169.5q-14 13.5 -14 33.5q0 19 14 32.5t33 13.5t32.5 -13.5t13.5 -32.5t-13.5 -33t-32.5 -14t-33 13.5z"></glyph><glyph glyph-name="uniFB57" unicode="پ" d="M445 -239q-14 -14 -14 -33t14 -32.5t33 -13.5t32.5 13.5t13.5 32.5t-13.5 33t-32.5 14t-33 -14zM365 -104q-14 -14 -14 -33t14 -32.5t33 -13.5t32.5 13.5t13.5 32.5t-13.5 33t-32.5 14t-33 -14zM525 -104q-14 -14 -14 -33t14 -32.5t33 -13.5t32.5 13.5t13.5 32.5 t-13.5 33t-32.5 14t-33 -14zM926 115q40 -41 121 -41v-74q-144 0 -192 104q-29 -51 -82 -77.5t-126 -26.5h-266q-96 0 -165 33t-105 94t-36 143q0 63 23 140h77q-22 -70 -22 -132q0 -97 58.5 -150.5t169.5 -53.5h266q162 0 162 165v221h77v-221q0 -83 40 -124z"></glyph><glyph glyph-name="uniFB59" unicode="پ" d="M279 115q40 -41 121 -41v-74q-143 0 -193 104q-29 -51 -81.5 -77.5t-125.5 -26.5q-19 0 -31 11t-12 28q0 16 11.5 25.5t31.5 9.5q162 0 162 165v221h77v-221q0 -83 40 -124zM167 -239q-14 -14 -14 -33t14 -32.5t33 -13.5t32.5 13.5t13.5 32.5t-13.5 33t-32.5 14t-33 -14z M87 -104q-14 -14 -14 -33t14 -32.5t33 -13.5t32.5 13.5t13.5 32.5t-13.5 33t-32.5 14t-33 -14zM247 -104q-14 -14 -14 -33t14 -32.5t33 -13.5t32.5 13.5t13.5 32.5t-13.5 33t-32.5 14t-33 -14z"></glyph><glyph glyph-name="uniFB58" unicode="پ" d="M162 460h77v-460h-239q-19 0 -31 11t-12 28q0 16 11.5 25.5t31.5 9.5h162v386zM167 -239q-14 -14 -14 -33t14 -32.5t33 -13.5t32.5 13.5t13.5 32.5t-13.5 33t-32.5 14t-33 -14zM87 -104q-14 -14 -14 -33t14 -32.5t33 -13.5t32.5 13.5t13.5 32.5t-13.5 33t-32.5 14 t-33 -14zM247 -104q-14 -14 -14 -33t14 -32.5t33 -13.5t32.5 13.5t13.5 32.5t-13.5 33t-32.5 14t-33 -14z"></glyph><glyph glyph-name="uniFE96" unicode="ت" d="M365 544q-14 14 -14 33t14 32.5t33 13.5t32.5 -13.5t13.5 -32.5t-13.5 -33t-32.5 -14t-33 14zM525 544q-14 14 -14 33t14 32.5t33 13.5t32.5 -13.5t13.5 -32.5t-13.5 -33t-32.5 -14t-33 14zM926 115q40 -41 121 -41v-74q-144 0 -192 104q-29 -51 -82 -77.5t-126 -26.5 h-266q-96 0 -165 33t-105 94t-36 143q0 63 23 140h77q-22 -70 -22 -132q0 -97 58.5 -150.5t169.5 -53.5h266q162 0 162 165v221h77v-221q0 -83 40 -124z"></glyph><glyph glyph-name="uniFE98" unicode="ت" d="M279 115q40 -41 121 -41v-74q-143 0 -193 104q-29 -51 -81.5 -77.5t-125.5 -26.5q-19 0 -31 11t-12 28q0 16 11.5 25.5t31.5 9.5q162 0 162 165v221h77v-221q0 -83 40 -124zM87 579q-14 14 -14 33t14 32.5t33 13.5t32.5 -13.5t13.5 -32.5t-13.5 -33t-32.5 -14t-33 14z M247 579q-14 14 -14 33t14 32.5t33 13.5t32.5 -13.5t13.5 -32.5t-13.5 -33t-32.5 -14t-33 14z"></glyph><glyph glyph-name="uniFE97" unicode="ت" d="M162 460h77v-460h-239q-19 0 -31 11t-12 28q0 16 11.5 25.5t31.5 9.5h162v386zM80 579q-14 14 -14 33t14 32.5t33 13.5t32.5 -13.5t13.5 -32.5t-13.5 -33t-32.5 -14t-33 14zM240 579q-14 14 -14 33t14 32.5t33 13.5t32.5 -13.5t13.5 -32.5t-13.5 -33t-32.5 -14t-33 14z "></glyph><glyph glyph-name="uniFE9A" unicode="ث" d="M451 679q-14 14 -14 33t14 32.5t33 13.5t32.5 -13.5t13.5 -32.5t-13.5 -33t-32.5 -14t-33 14zM371 544q-14 14 -14 33t14 32.5t33 13.5t32.5 -13.5t13.5 -32.5t-13.5 -33t-32.5 -14t-33 14zM531 544q-14 14 -14 33t14 32.5t33 13.5t32.5 -13.5t13.5 -32.5t-13.5 -33 t-32.5 -14t-33 14zM926 115q40 -41 121 -41v-74q-144 0 -192 104q-29 -51 -82 -77.5t-126 -26.5h-266q-96 0 -165 33t-105 94t-36 143q0 63 23 140h77q-22 -70 -22 -132q0 -97 58.5 -150.5t169.5 -53.5h266q162 0 162 165v221h77v-221q0 -83 40 -124z"></glyph><glyph glyph-name="uniFE9C" unicode="ث" d="M279 115q40 -41 121 -41v-74q-143 0 -193 104q-29 -51 -81.5 -77.5t-125.5 -26.5q-19 0 -31 11t-12 28q0 16 11.5 25.5t31.5 9.5q162 0 162 165v221h77v-221q0 -83 40 -124zM167 714q-14 14 -14 33t14 32.5t33 13.5t32.5 -13.5t13.5 -32.5t-13.5 -33t-32.5 -14t-33 14z M87 579q-14 14 -14 33t14 32.5t33 13.5t32.5 -13.5t13.5 -32.5t-13.5 -33t-32.5 -14t-33 14zM247 579q-14 14 -14 33t14 32.5t33 13.5t32.5 -13.5t13.5 -32.5t-13.5 -33t-32.5 -14t-33 14z"></glyph><glyph glyph-name="uniFE9B" unicode="ث" d="M162 460h77v-460h-239q-19 0 -31 11t-12 28q0 16 11.5 25.5t31.5 9.5h162v386zM168 714q-14 14 -14 33t14 32.5t33 13.5t32.5 -13.5t13.5 -32.5t-13.5 -33t-32.5 -14t-33 14zM88 579q-14 14 -14 33t14 32.5t33 13.5t32.5 -13.5t13.5 -32.5t-13.5 -33t-32.5 -14t-33 14z M248 579q-14 14 -14 33t14 32.5t33 13.5t32.5 -13.5t13.5 -32.5t-13.5 -33t-32.5 -14t-33 14z"></glyph><glyph glyph-name="uniFE9E" unicode="ج" d="M769 0h-415q-99 0 -144 -32.5t-45 -102.5t45.5 -103t143.5 -33h104v-73h-104q-130 0 -198 53.5t-68 155.5t68 155.5t198 53.5h226q-8 24 -19 86q-1 11 -5 31q-15 85 -40 135t-67 78q-36 24 -82.5 35.5t-94.5 11.5q-54 0 -98 -13l-14 75q54 14 117 14q59 0 116 -15 t103 -46q53 -36 86 -100t50 -163q11 -59 18.5 -84t22 -35t43.5 -10h53v-74zM375 -162.5q-14 13.5 -14 33.5q0 19 14 32.5t33 13.5t32.5 -13.5t13.5 -32.5t-13.5 -33t-32.5 -14t-33 13.5z"></glyph><glyph glyph-name="uniFEA0" unicode="ج" d="M654 74v-74h-654q-16 0 -27.5 11.5t-11.5 27.5q0 15 11 24.5t28 10.5h470q-8 24 -19 86q-1 11 -5 31q-15 85 -40 135t-67 78q-36 24 -82.5 35.5t-94.5 11.5q-54 0 -98 -13l-14 75q54 14 117 14q59 0 116 -15t103 -46q53 -36 86 -100t50 -163q11 -59 18.5 -84t22 -35 t43.5 -10h48zM275 -169.5q-14 13.5 -14 33.5q0 19 14 32.5t33 13.5t32.5 -13.5t13.5 -32.5t-13.5 -33t-32.5 -14t-33 13.5z"></glyph><glyph glyph-name="uniFE9F" unicode="ج" d="M540.5 119q7.5 -25 22 -35t43.5 -10v-74h-606q-16 0 -27.5 11.5t-11.5 27.5q0 15 11 24.5t28 10.5h470q-8 24 -19 86q-1 11 -5 31q-15 85 -40 135t-67 78q-36 24 -82.5 35.5t-94.5 11.5q-54 0 -98 -13l-14 75q54 14 117 14q59 0 116 -15t103 -46q53 -36 86 -100t50 -163 q11 -59 18.5 -84zM264 -169.5q-14 13.5 -14 33.5q0 19 14 32.5t33 13.5t32.5 -13.5t13.5 -32.5t-13.5 -33t-32.5 -14t-33 13.5z"></glyph><glyph glyph-name="uniFB7B" unicode="چ" d="M769 0h-415q-99 0 -144 -32.5t-45 -102.5t45.5 -103t143.5 -33h104v-73h-104q-130 0 -198 53.5t-68 155.5t68 155.5t198 53.5h226q-8 24 -19 86q-1 11 -5 31q-15 85 -40 135t-67 78q-36 24 -82.5 35.5t-94.5 11.5q-54 0 -98 -13l-14 75q54 14 117 14q59 0 116 -15 t103 -46q53 -36 86 -100t50 -163q11 -59 18.5 -84t22 -35t43.5 -10h53v-74zM326.395 -131.198q-11.1992 -11.1992 -11.1992 -26.3994q0 -15.1992 11.1992 -26q11.2002 -10.7998 26.4004 -10.7998q15.1992 0 25.999 10.7998q10.7998 10.8008 10.7998 26 q0 15.2002 -10.7998 26.3994q-10.7998 11.2002 -25.999 11.2002q-15.2002 0 -26.4004 -11.2002zM275.195 -44.7988q-11.1992 -11.2002 -11.1992 -26.4004q0 -15.1992 11.1992 -25.999q11.2002 -10.7998 26.4004 -10.7998q15.1992 0 25.999 10.7998t10.7998 25.999 q0 15.2002 -10.7998 26.4004q-10.7998 11.1992 -25.999 11.1992q-15.2002 0 -26.4004 -11.1992zM377.594 -44.7988q-11.1992 -11.2002 -11.1992 -26.4004q0 -15.1992 11.1992 -25.999q11.2002 -10.7998 26.4004 -10.7998q15.1992 0 25.999 10.7998t10.7998 25.999 q0 15.2002 -10.7998 26.4004q-10.7998 11.1992 -25.999 11.1992q-15.2002 0 -26.4004 -11.1992z"></glyph><glyph glyph-name="uniFB7D" unicode="چ" d="M654 74v-74h-654q-16 0 -27.5 11.5t-11.5 27.5q0 15 11 24.5t28 10.5h470q-8 24 -19 86q-1 11 -5 31q-15 85 -40 135t-67 78q-36 24 -82.5 35.5t-94.5 11.5q-54 0 -98 -13l-14 75q54 14 117 14q59 0 116 -15t103 -46q53 -36 86 -100t50 -163q11 -59 18.5 -84t22 -35 t43.5 -10h48zM276 -238q-14 -14 -14 -33t14 -32.5t33 -13.5t32.5 13.5t13.5 32.5t-13.5 33t-32.5 14t-33 -14zM196 -103q-14 -14 -14 -33t14 -32.5t33 -13.5t32.5 13.5t13.5 32.5t-13.5 33t-32.5 14t-33 -14zM356 -103q-14 -14 -14 -33t14 -32.5t33 -13.5t32.5 13.5 t13.5 32.5t-13.5 33t-32.5 14t-33 -14z"></glyph><glyph glyph-name="uniFB7C" unicode="چ" d="M540.5 119q7.5 -25 22 -35t43.5 -10v-74h-606q-16 0 -27.5 11.5t-11.5 27.5q0 15 11 24.5t28 10.5h470q-8 24 -19 86q-1 11 -5 31q-15 85 -40 135t-67 78q-36 24 -82.5 35.5t-94.5 11.5q-54 0 -98 -13l-14 75q54 14 117 14q59 0 116 -15t103 -46q53 -36 86 -100t50 -163 q11 -59 18.5 -84zM259 -238q-14 -14 -14 -33t14 -32.5t33 -13.5t32.5 13.5t13.5 32.5t-13.5 33t-32.5 14t-33 -14zM179 -103q-14 -14 -14 -33t14 -32.5t33 -13.5t32.5 13.5t13.5 32.5t-13.5 33t-32.5 14t-33 -14zM339 -103q-14 -14 -14 -33t14 -32.5t33 -13.5t32.5 13.5 t13.5 32.5t-13.5 33t-32.5 14t-33 -14z"></glyph><glyph glyph-name="uniFEA2" unicode="ح" d="M769 0h-415q-99 0 -144 -32.5t-45 -102.5t45.5 -103t143.5 -33h104v-73h-104q-130 0 -198 53.5t-68 155.5t68 155.5t198 53.5h226q-8 24 -19 86q-1 11 -5 31q-15 85 -40 135t-67 78q-36 24 -82.5 35.5t-94.5 11.5q-54 0 -98 -13l-14 75q54 14 117 14q59 0 116 -15 t103 -46q53 -36 86 -100t50 -163q11 -59 18.5 -84t22 -35t43.5 -10h53v-74z"></glyph><glyph glyph-name="uniFEA4" unicode="ح" d="M654 74v-74h-654q-16 0 -27.5 11.5t-11.5 27.5q0 15 11 24.5t28 10.5h470q-8 24 -19 86q-1 11 -5 31q-15 85 -40 135t-67 78q-36 24 -82.5 35.5t-94.5 11.5q-54 0 -98 -13l-14 75q54 14 117 14q59 0 116 -15t103 -46q53 -36 86 -100t50 -163q11 -59 18.5 -84t22 -35 t43.5 -10h48z"></glyph><glyph glyph-name="uniFEA3" unicode="ح" d="M540.5 119q7.5 -25 22 -35t43.5 -10v-74h-606q-16 0 -27.5 11.5t-11.5 27.5q0 15 11 24.5t28 10.5h470q-8 24 -19 86q-1 11 -5 31q-15 85 -40 135t-67 78q-36 24 -82.5 35.5t-94.5 11.5q-54 0 -98 -13l-14 75q54 14 117 14q59 0 116 -15t103 -46q53 -36 86 -100t50 -163 q11 -59 18.5 -84z"></glyph><glyph glyph-name="uniFEA6" unicode="خ" d="M769 0h-415q-99 0 -144 -32.5t-45 -102.5t45.5 -103t143.5 -33h104v-73h-104q-130 0 -198 53.5t-68 155.5t68 155.5t198 53.5h226q-8 24 -19 86q-1 11 -5 31q-15 85 -40 135t-67 78q-36 24 -82.5 35.5t-94.5 11.5q-54 0 -98 -13l-14 75q54 14 117 14q59 0 116 -15 t103 -46q53 -36 86 -100t50 -163q11 -59 18.5 -84t22 -35t43.5 -10h53v-74zM368 627q-14 14 -14 33t14 32.5t33 13.5t32.5 -13.5t13.5 -32.5t-13.5 -33t-32.5 -14t-33 14z"></glyph><glyph glyph-name="uniFEA8" unicode="خ" d="M654 74v-74h-654q-16 0 -27.5 11.5t-11.5 27.5q0 15 11 24.5t28 10.5h470q-8 24 -19 86q-1 11 -5 31q-15 85 -40 135t-67 78q-36 24 -82.5 35.5t-94.5 11.5q-54 0 -98 -13l-14 75q54 14 117 14q59 0 116 -15t103 -46q53 -36 86 -100t50 -163q11 -59 18.5 -84t22 -35 t43.5 -10h48zM278 627q-14 14 -14 33t14 32.5t33 13.5t32.5 -13.5t13.5 -32.5t-13.5 -33t-32.5 -14t-33 14z"></glyph><glyph glyph-name="uniFEA7" unicode="خ" d="M540.5 119q7.5 -25 22 -35t43.5 -10v-74h-606q-16 0 -27.5 11.5t-11.5 27.5q0 15 11 24.5t28 10.5h470q-8 24 -19 86q-1 11 -5 31q-15 85 -40 135t-67 78q-36 24 -82.5 35.5t-94.5 11.5q-54 0 -98 -13l-14 75q54 14 117 14q59 0 116 -15t103 -46q53 -36 86 -100t50 -163 q11 -59 18.5 -84zM247 627q-14 14 -14 33t14 32.5t33 13.5t32.5 -13.5t13.5 -32.5t-13.5 -33t-32.5 -14t-33 14z"></glyph><glyph glyph-name="uniFEAA" unicode="د" d="M630 74v-74h-562v74h375v141q0 119 -72.5 177.5t-221.5 58.5h-25v77h27q179 0 274 -80t95 -230v-144h110z"></glyph><glyph glyph-name="uniFEAC" unicode="ذ" d="M262 627q-14 14 -14 33t14 32.5t33 13.5t32.5 -13.5t13.5 -32.5t-13.5 -33t-32.5 -14t-33 14zM630 74v-74h-562v74h375v141q0 119 -72.5 177.5t-221.5 58.5h-25v77h27q179 0 274 -80t95 -230v-144h110z"></glyph><glyph glyph-name="uniFEAE" unicode="ر" d="M349 0h-111v-39q0 -90 -36 -134.5t-110 -44.5q-41 0 -92 13l16 69q38 -8 63 -8q42 0 62 24.5t20 80.5v499h77v-386h111v-74z"></glyph><glyph glyph-name="uniFEB0" unicode="ز" d="M349 0h-111v-39q0 -90 -36 -134.5t-110 -44.5q-41 0 -92 13l16 69q38 -8 63 -8q42 0 62 24.5t20 80.5v499h77v-386h111v-74zM167 577q-14 14 -14 33t14 32.5t33 13.5t32.5 -13.5t13.5 -32.5t-13.5 -33t-32.5 -14t-33 14z"></glyph><glyph glyph-name="uniFEB2" unicode="س" d="M1460 74v-74h-300q-123 0 -172 99q-26 -48 -71.5 -73.5t-106.5 -25.5h-127q-20 -124 -99.5 -185.5t-205.5 -61.5q-132 0 -221 69.5t-89 226.5q0 83 29 189h77q-30 -104 -30 -183q0 -125 66.5 -177t167.5 -52q234 0 234 259v412h77v-412v-11h121q64 0 98 41.5t34 123.5 v258h77v-258q0 -81 36 -123t105 -42h112v454h77v-454h111z"></glyph><glyph glyph-name="uniFEB4" unicode="س" d="M1010 74v-74h-300q-61 0 -104.5 25t-66.5 73q-26 -47 -69 -72.5t-100 -25.5h-370q-20 0 -31.5 10t-11.5 27t11.5 27t31.5 10h162v423h77v-423h131q58 0 90 41.5t32 123.5v258h77v-258q0 -81 36 -123t105 -42h112v454h77v-454h111z"></glyph><glyph glyph-name="uniFEB3" unicode="س" d="M899 528v-528h-189q-61 0 -104.5 25t-66.5 73q-26 -47 -69 -72.5t-100 -25.5h-370q-20 0 -31.5 10t-11.5 27t11.5 27t31.5 10h162v423h77v-423h131q58 0 90 41.5t32 123.5v258h77v-258q0 -81 36 -123t105 -42h112v454h77z"></glyph><glyph glyph-name="uniFEB6" unicode="ش" d="M819 633q-14 14 -14 33t14 32.5t33 13.5t32.5 -13.5t13.5 -32.5t-13.5 -33t-32.5 -14t-33 14zM1079 633q-14 14 -14 33t14 32.5t33 13.5t32.5 -13.5t13.5 -32.5t-13.5 -33t-32.5 -14t-33 14zM949 764q-14 14 -14 33t14 32.5t33 13.5t32.5 -13.5t13.5 -32.5t-13.5 -33 t-32.5 -14t-33 14zM1460 74v-74h-300q-123 0 -172 99q-26 -48 -71.5 -73.5t-106.5 -25.5h-127q-20 -124 -99.5 -185.5t-205.5 -61.5q-132 0 -221 69.5t-89 226.5q0 83 29 189h77q-30 -104 -30 -183q0 -125 66.5 -177t167.5 -52q234 0 234 259v412h77v-412v-11h121 q64 0 98 41.5t34 123.5v258h77v-258q0 -81 36 -123t105 -42h112v454h77v-454h111z"></glyph><glyph glyph-name="uniFEB8" unicode="ش" d="M1010 74v-74h-300q-61 0 -104.5 25t-66.5 73q-26 -47 -69 -72.5t-100 -25.5h-370q-20 0 -31.5 10t-11.5 27t11.5 27t31.5 10h162v423h77v-423h131q58 0 90 41.5t32 123.5v258h77v-258q0 -81 36 -123t105 -42h112v454h77v-454h111zM369 633q-14 14 -14 33t14 32.5t33 13.5 t32.5 -13.5t13.5 -32.5t-13.5 -33t-32.5 -14t-33 14zM629 633q-14 14 -14 33t14 32.5t33 13.5t32.5 -13.5t13.5 -32.5t-13.5 -33t-32.5 -14t-33 14zM499 764q-14 14 -14 33t14 32.5t33 13.5t32.5 -13.5t13.5 -32.5t-13.5 -33t-32.5 -14t-33 14z"></glyph><glyph glyph-name="uniFEB7" unicode="ش" d="M899 528v-528h-189q-61 0 -104.5 25t-66.5 73q-26 -47 -69 -72.5t-100 -25.5h-370q-20 0 -31.5 10t-11.5 27t11.5 27t31.5 10h162v423h77v-423h131q58 0 90 41.5t32 123.5v258h77v-258q0 -81 36 -123t105 -42h112v454h77zM367 633q-14 14 -14 33t14 32.5t33 13.5 t32.5 -13.5t13.5 -32.5t-13.5 -33t-32.5 -14t-33 14zM627 633q-14 14 -14 33t14 32.5t33 13.5t32.5 -13.5t13.5 -32.5t-13.5 -33t-32.5 -14t-33 14zM497 764q-14 14 -14 33t14 32.5t33 13.5t32.5 -13.5t13.5 -32.5t-13.5 -33t-32.5 -14t-33 14z"></glyph><glyph glyph-name="uniFEBA" unicode="ص" d="M1355 115q40 -41 121 -41v-74q-143 0 -193 104q-29 -51 -81.5 -77.5t-125.5 -26.5h-393q-20 -124 -99.5 -185.5t-205.5 -61.5q-132 0 -221 69.5t-89 226.5q0 83 29 189h77q-30 -104 -30 -183q0 -125 66.5 -177t167.5 -52q234 0 234 259v443h77v-199q43 93 128 146t198 53 q87 0 155.5 -37t106.5 -103t38 -149t40 -124zM1198 114.5q40 40.5 40 124.5q0 96 -60 154t-163 58q-89 0 -163.5 -41t-118.5 -111.5t-44 -153.5v-71h387q82 0 122 40.5z"></glyph><glyph glyph-name="uniFEBC" unicode="ص" d="M831 115q40 -41 121 -41v-74q-143 0 -193 104q-29 -51 -81.5 -77.5t-125.5 -26.5h-552q-20 0 -31.5 10t-11.5 27t12 27t31 10h90v454h76v-198q43 92 127.5 145t197.5 53q87 0 155.5 -37t106.5 -103t38 -149t40 -124zM674 114.5q40 40.5 40 124.5q0 96 -59 154t-162 58 q-86 0 -160 -39.5t-119.5 -106.5t-48.5 -148v-83h387q82 0 122 40.5z"></glyph><glyph glyph-name="uniFEBB" unicode="ص" d="M646.5 491q68.5 -37 106.5 -103t38 -149v-239h-791q-20 0 -31.5 10t-11.5 27t12 27t31 10h90v454h76v-198q43 92 127.5 145t197.5 53q87 0 155.5 -37zM714 239q0 96 -59 154t-162 58q-86 0 -160 -39.5t-119.5 -106.5t-48.5 -148v-83h549v165z"></glyph><glyph glyph-name="uniFEBE" unicode="ض" d="M940 627q-14 14 -14 33t14 32.5t33 13.5t32.5 -13.5t13.5 -32.5t-13.5 -33t-32.5 -14t-33 14zM1355 115q40 -41 121 -41v-74q-143 0 -193 104q-29 -51 -81.5 -77.5t-125.5 -26.5h-393q-20 -124 -99.5 -185.5t-205.5 -61.5q-132 0 -221 69.5t-89 226.5q0 83 29 189h77 q-30 -104 -30 -183q0 -125 66.5 -177t167.5 -52q234 0 234 259v443h77v-199q43 93 128 146t198 53q87 0 155.5 -37t106.5 -103t38 -149t40 -124zM1198 114.5q40 40.5 40 124.5q0 96 -60 154t-163 58q-89 0 -163.5 -41t-118.5 -111.5t-44 -153.5v-71h387q82 0 122 40.5z"></glyph><glyph glyph-name="uniFEC0" unicode="ض" d="M401 625q-14 14 -14 33t14 32.5t33 13.5t32.5 -13.5t13.5 -32.5t-13.5 -33t-32.5 -14t-33 14zM831 115q40 -41 121 -41v-74q-143 0 -193 104q-29 -51 -81.5 -77.5t-125.5 -26.5h-552q-20 0 -31.5 10t-11.5 27t12 27t31 10h90v454h76v-198q43 92 127.5 145t197.5 53 q87 0 155.5 -37t106.5 -103t38 -149t40 -124zM674 114.5q40 40.5 40 124.5q0 96 -59 154t-162 58q-86 0 -160 -39.5t-119.5 -106.5t-48.5 -148v-83h387q82 0 122 40.5z"></glyph><glyph glyph-name="uniFEBF" unicode="ض" d="M646.5 491q68.5 -37 106.5 -103t38 -149v-239h-791q-20 0 -31.5 10t-11.5 27t12 27t31 10h90v454h76v-198q43 92 127.5 145t197.5 53q87 0 155.5 -37zM714 239q0 96 -59 154t-162 58q-86 0 -160 -39.5t-119.5 -106.5t-48.5 -148v-83h549v165zM401 625q-14 14 -14 33 t14 32.5t33 13.5t32.5 -13.5t13.5 -32.5t-13.5 -33t-32.5 -14t-33 14z"></glyph><glyph glyph-name="uniFEC2" unicode="ط" d="M940 115q40 -41 121 -41v-74q-143 0 -193 104q-29 -51 -81.5 -77.5t-125.5 -26.5h-593v74h131v660h76l-1 -404q44 92 128.5 145t197.5 53q87 0 155.5 -37t106.5 -103t38 -149t40 -124zM783 114.5q40 40.5 40 124.5q0 96 -60 154t-163 58q-87 0 -160.5 -39.5t-118 -107.5 t-47.5 -149v-81h387q82 0 122 40.5z"></glyph><glyph glyph-name="uniFEC4" unicode="ط" d="M829 115q40 -41 121 -41v-74q-143 0 -193 104q-29 -51 -81.5 -77.5t-125.5 -26.5h-551q-20 0 -31 10t-11 27q0 16 11 26t31 11h89v660h76l-1 -404q44 92 128.5 145t197.5 53q87 0 155.5 -37t106.5 -103t38 -149t40 -124zM672 114.5q40 40.5 40 124.5q0 96 -60 154 t-163 58q-87 0 -160.5 -39.5t-118 -107.5t-47.5 -149v-81h387q82 0 122 40.5z"></glyph><glyph glyph-name="uniFEC3" unicode="ط" d="M644.5 491q68.5 -37 106.5 -103t38 -149v-239h-790q-20 0 -31 10t-11 27q0 16 11 26t31 11h89v660h76l-1 -404q44 92 128.5 145t197.5 53q87 0 155.5 -37zM712 239q0 96 -60 154t-163 58q-87 0 -160.5 -39.5t-118 -107.5t-47.5 -149v-81h549v165z"></glyph><glyph glyph-name="uniFEC6" unicode="ظ" d="M520 626q-14 14 -14 33t14 32.5t33 13.5t32.5 -13.5t13.5 -32.5t-13.5 -33t-32.5 -14t-33 14zM940 115q40 -41 121 -41v-74q-143 0 -193 104q-29 -51 -81.5 -77.5t-125.5 -26.5h-593v74h131v660h76l-1 -404q44 92 128.5 145t197.5 53q87 0 155.5 -37t106.5 -103t38 -149 t40 -124zM783 114.5q40 40.5 40 124.5q0 96 -60 154t-163 58q-87 0 -160.5 -39.5t-118 -107.5t-47.5 -149v-81h387q82 0 122 40.5z"></glyph><glyph glyph-name="uniFEC8" unicode="ظ" d="M410 625q-14 14 -14 33t14 32.5t33 13.5t32.5 -13.5t13.5 -32.5t-13.5 -33t-32.5 -14t-33 14zM829 115q40 -41 121 -41v-74q-143 0 -193 104q-29 -51 -81.5 -77.5t-125.5 -26.5h-551q-20 0 -31 10t-11 27q0 16 11 26t31 11h89v660h76l-1 -404q44 92 128.5 145t197.5 53 q87 0 155.5 -37t106.5 -103t38 -149t40 -124zM672 114.5q40 40.5 40 124.5q0 96 -60 154t-163 58q-87 0 -160.5 -39.5t-118 -107.5t-47.5 -149v-81h387q82 0 122 40.5z"></glyph><glyph glyph-name="uniFEC7" unicode="ظ" d="M644.5 491q68.5 -37 106.5 -103t38 -149v-239h-790q-20 0 -31 10t-11 27q0 16 11 26t31 11h89v660h76l-1 -404q44 92 128.5 145t197.5 53q87 0 155.5 -37zM712 239q0 96 -60 154t-163 58q-87 0 -160.5 -39.5t-118 -107.5t-47.5 -149v-81h549v165zM410 625q-14 14 -14 33 t14 32.5t33 13.5t32.5 -13.5t13.5 -32.5t-13.5 -33t-32.5 -14t-33 14z"></glyph><glyph glyph-name="uniFECA" unicode="ع" d="M780 74v-74h-288q-25 0 -39.5 8t-31.5 33q-17 -26 -31 -33.5t-42 -7.5h-14q-99 0 -144 -32t-45 -103q0 -70 45.5 -103t143.5 -33h104v-73h-104q-130 0 -198 53.5t-68 155.5q0 98 63 151.5t184 57.5l-167 154v24q0 75 36.5 138.5t99 100.5t136.5 37q75 0 137.5 -37 t99 -100t36.5 -139v-24l-167 -154h254zM616 263q-4 53 -31 96t-70.5 67.5t-94.5 24.5t-94.5 -24.5t-70.5 -67.5t-31 -96l196 -185z"></glyph><glyph glyph-name="uniFECC" unicode="ع" d="M720 74v-74h-288q-25 0 -39.5 7t-32.5 33q-19 -27 -33 -33.5t-39 -6.5h-288q-19 0 -31 11t-12 28q0 16 11.5 25.5t31.5 9.5h254l-166 154v24q0 75 36.5 138.5t99 100.5t136.5 37q75 0 137.5 -37t99 -100t36.5 -139v-24l-167 -154h254zM556 263q-4 53 -31 96t-70.5 67.5 t-94.5 24.5t-94.5 -24.5t-70.5 -67.5t-31 -96l196 -185z"></glyph><glyph glyph-name="uniFECB" unicode="ع" d="M518 0h-518q-18 0 -30.5 10.5t-12.5 26.5t12.5 26.5t30.5 10.5h140q-92 53 -92 181q0 80 38 142.5t102 96.5t140 34q41 0 81 -10t86 -31l-28 -72q-43 18 -77 26.5t-69 8.5q-56 0 -101 -24t-70 -68.5t-25 -102.5q0 -90 54 -135.5t148 -45.5h191v-74z"></glyph><glyph glyph-name="uniFECE" unicode="غ" d="M780 74v-74h-288q-25 0 -39.5 8t-31.5 33q-17 -26 -31 -33.5t-42 -7.5h-14q-99 0 -144 -32t-45 -103q0 -70 45.5 -103t143.5 -33h104v-73h-104q-130 0 -198 53.5t-68 155.5q0 98 63 151.5t184 57.5l-167 154v24q0 75 36.5 138.5t99 100.5t136.5 37q75 0 137.5 -37 t99 -100t36.5 -139v-24l-167 -154h254zM616 263q-4 53 -31 96t-70.5 67.5t-94.5 24.5t-94.5 -24.5t-70.5 -67.5t-31 -96l196 -185zM387 627q-14 14 -14 33t14 32.5t33 13.5t32.5 -13.5t13.5 -32.5t-13.5 -33t-32.5 -14t-33 14z"></glyph><glyph glyph-name="uniFED0" unicode="غ" d="M720 74v-74h-288q-25 0 -39.5 7t-32.5 33q-19 -27 -33 -33.5t-39 -6.5h-288q-19 0 -31 11t-12 28q0 16 11.5 25.5t31.5 9.5h254l-166 154v24q0 75 36.5 138.5t99 100.5t136.5 37q75 0 137.5 -37t99 -100t36.5 -139v-24l-167 -154h254zM556 263q-4 53 -31 96t-70.5 67.5 t-94.5 24.5t-94.5 -24.5t-70.5 -67.5t-31 -96l196 -185zM327 627q-14 14 -14 33t14 32.5t33 13.5t32.5 -13.5t13.5 -32.5t-13.5 -33t-32.5 -14t-33 14z"></glyph><glyph glyph-name="uniFECF" unicode="غ" d="M518 0h-518q-18 0 -30.5 10.5t-12.5 26.5t12.5 26.5t30.5 10.5h140q-92 53 -92 181q0 80 38 142.5t102 96.5t140 34q41 0 81 -10t86 -31l-28 -72q-43 18 -77 26.5t-69 8.5q-56 0 -101 -24t-70 -68.5t-25 -102.5q0 -90 54 -135.5t148 -45.5h191v-74zM270 627 q-14 14 -14 33t14 32.5t33 13.5t32.5 -13.5t13.5 -32.5t-13.5 -33t-32.5 -14t-33 14z"></glyph><glyph glyph-name="uniFED2" unicode="ف" d="M1177 74v-74h-797q-85 0 -154.5 28.5t-111 87.5t-41.5 148q0 65 25 146h77q-23 -72 -23 -132q0 -103 64 -153.5t164 -50.5h260q-39 35 -58 83.5t-19 102.5q0 72 32 132.5t102.5 98t181.5 37.5h174v-454h124zM976 451h-99q-125 0 -181.5 -54.5t-56.5 -135.5t56.5 -134 t183.5 -53h97v377zM775 627q-14 14 -14 33t14 32.5t33 13.5t32.5 -13.5t13.5 -32.5t-13.5 -33t-32.5 -14t-33 14z"></glyph><glyph glyph-name="uniFED4" unicode="ف" d="M681 74v-74h-681q-20 0 -31.5 9.5t-11.5 26.5q0 19 11.5 28.5t31.5 9.5h164q-39 35 -58 83.5t-19 102.5q0 72 32 132.5t102.5 98t181.5 37.5h174v-454h104zM500 451h-99q-125 0 -181.5 -54.5t-56.5 -135.5t56.5 -134t183.5 -53h97v377zM301 627q-14 14 -14 33t14 32.5 t33 13.5t32.5 -13.5t13.5 -32.5t-13.5 -33t-32.5 -14t-33 14z"></glyph><glyph glyph-name="uniFED3" unicode="ف" d="M577 0h-577q-20 0 -31.5 9.5t-11.5 26.5q0 19 11.5 28.5t31.5 9.5h164q-39 35 -58 83.5t-19 102.5q0 72 32 132.5t102.5 98t181.5 37.5h174v-528zM500 451h-99q-125 0 -181.5 -54.5t-56.5 -135.5t56.5 -134t183.5 -53h97v377zM300 627q-14 14 -14 33t14 32.5t33 13.5 t32.5 -13.5t13.5 -32.5t-13.5 -33t-32.5 -14t-33 14z"></glyph><glyph glyph-name="uniFB6B" unicode="ڤ" d="M1177 74v-74h-797q-85 0 -154.5 28.5t-111 87.5t-41.5 148q0 65 25 146h77q-23 -72 -23 -132q0 -103 64 -153.5t164 -50.5h260q-39 35 -58 83.5t-19 102.5q0 72 32 132.5t102.5 98t181.5 37.5h174v-454h124zM976 451h-99q-125 0 -181.5 -54.5t-56.5 -135.5t56.5 -134 t183.5 -53h97v377zM773 762q-14 14 -14 33t14 32.5t33 13.5t32.5 -13.5t13.5 -32.5t-13.5 -33t-32.5 -14t-33 14zM693 627q-14 14 -14 33t14 32.5t33 13.5t32.5 -13.5t13.5 -32.5t-13.5 -33t-32.5 -14t-33 14zM853 627q-14 14 -14 33t14 32.5t33 13.5t32.5 -13.5t13.5 -32.5 t-13.5 -33t-32.5 -14t-33 14z"></glyph><glyph glyph-name="uniFB6D" unicode="ڤ" d="M681 74v-74h-681q-20 0 -31.5 9.5t-11.5 26.5q0 19 11.5 28.5t31.5 9.5h164q-39 35 -58 83.5t-19 102.5q0 72 32 132.5t102.5 98t181.5 37.5h174v-454h104zM500 451h-99q-125 0 -181.5 -54.5t-56.5 -135.5t56.5 -134t183.5 -53h97v377zM301 762q-14 14 -14 33t14 32.5 t33 13.5t32.5 -13.5t13.5 -32.5t-13.5 -33t-32.5 -14t-33 14zM221 627q-14 14 -14 33t14 32.5t33 13.5t32.5 -13.5t13.5 -32.5t-13.5 -33t-32.5 -14t-33 14zM381 627q-14 14 -14 33t14 32.5t33 13.5t32.5 -13.5t13.5 -32.5t-13.5 -33t-32.5 -14t-33 14z"></glyph><glyph glyph-name="uniFB6C" unicode="ڤ" d="M577 0h-577q-20 0 -31.5 9.5t-11.5 26.5q0 19 11.5 28.5t31.5 9.5h164q-39 35 -58 83.5t-19 102.5q0 72 32 132.5t102.5 98t181.5 37.5h174v-528zM500 451h-99q-125 0 -181.5 -54.5t-56.5 -135.5t56.5 -134t183.5 -53h97v377zM300 762q-14 14 -14 33t14 32.5t33 13.5 t32.5 -13.5t13.5 -32.5t-13.5 -33t-32.5 -14t-33 14zM220 627q-14 14 -14 33t14 32.5t33 13.5t32.5 -13.5t13.5 -32.5t-13.5 -33t-32.5 -14t-33 14zM380 627q-14 14 -14 33t14 32.5t33 13.5t32.5 -13.5t13.5 -32.5t-13.5 -33t-32.5 -14t-33 14z"></glyph><glyph glyph-name="uni06A1.init" unicode="ڡ" d="M577 0h-577q-20 0 -31.5 9.5t-11.5 26.5q0 19 11.5 28.5t31.5 9.5h164q-39 35 -58 83.5t-19 102.5q0 72 32 132.5t102.5 98t181.5 37.5h174v-528zM500 451h-99q-125 0 -181.5 -54.5t-56.5 -135.5t56.5 -134t183.5 -53h97v377z"></glyph><glyph glyph-name="uni06A1.medi" unicode="ڡ" d="M681 74v-74h-681q-20 0 -31.5 9.5t-11.5 26.5q0 19 11.5 28.5t31.5 9.5h164q-39 35 -58 83.5t-19 102.5q0 72 32 132.5t102.5 98t181.5 37.5h174v-454h104zM500 451h-99q-125 0 -181.5 -54.5t-56.5 -135.5t56.5 -134t183.5 -53h97v377z"></glyph><glyph glyph-name="uni06A1.fina" unicode="ڡ" d="M1177 74v-74h-797q-85 0 -154.5 28.5t-111 87.5t-41.5 148q0 65 25 146h77q-23 -72 -23 -132q0 -103 64 -153.5t164 -50.5h260q-39 35 -58 83.5t-19 102.5q0 72 32 132.5t102.5 98t181.5 37.5h174v-454h124zM976 451h-99q-125 0 -181.5 -54.5t-56.5 -135.5t56.5 -134 t183.5 -53h97v377z"></glyph><glyph glyph-name="uniFED6" unicode="ق" d="M463 625q-14 14 -14 33t14 32.5t33 13.5t32.5 -13.5t13.5 -32.5t-13.5 -33t-32.5 -14t-33 14zM623 625q-14 14 -14 33t14 32.5t33 13.5t32.5 -13.5t13.5 -32.5t-13.5 -33t-32.5 -14t-33 14zM919 0h-99q-7 -297 -371 -297q-171 0 -273.5 75.5t-102.5 234.5q0 56 15 125h77 q-14 -67 -14 -116q0 -129 78.5 -185.5t219.5 -56.5q153 0 222.5 51.5t73.5 168.5h-97q-109 0 -178.5 36t-101 94.5t-31.5 128.5q0 71 32.5 131.5t102.5 98.5t178 38h170v-453h99v-74zM469 128q57 -54 181 -54h95v376h-97q-123 0 -179.5 -54t-56.5 -134t57 -134z"></glyph><glyph glyph-name="uniFED8" unicode="ق" d="M681 74v-74h-681q-20 0 -31.5 9.5t-11.5 26.5q0 19 11.5 28.5t31.5 9.5h164q-39 35 -58 83.5t-19 102.5q0 72 32 132.5t102.5 98t181.5 37.5h174v-454h104zM500 451h-99q-125 0 -181.5 -54.5t-56.5 -135.5t56.5 -134t183.5 -53h97v377zM220 627q-14 14 -14 33t14 32.5 t33 13.5t32.5 -13.5t13.5 -32.5t-13.5 -33t-32.5 -14t-33 14zM380 627q-14 14 -14 33t14 32.5t33 13.5t32.5 -13.5t13.5 -32.5t-13.5 -33t-32.5 -14t-33 14z"></glyph><glyph glyph-name="uniFED7" unicode="ق" d="M577 0h-577q-20 0 -31.5 9.5t-11.5 26.5q0 19 11.5 28.5t31.5 9.5h164q-39 35 -58 83.5t-19 102.5q0 72 32 132.5t102.5 98t181.5 37.5h174v-528zM500 451h-99q-125 0 -181.5 -54.5t-56.5 -135.5t56.5 -134t183.5 -53h97v377zM221 627q-14 14 -14 33t14 32.5t33 13.5 t32.5 -13.5t13.5 -32.5t-13.5 -33t-32.5 -14t-33 14zM381 627q-14 14 -14 33t14 32.5t33 13.5t32.5 -13.5t13.5 -32.5t-13.5 -33t-32.5 -14t-33 14z"></glyph><glyph glyph-name="uniFEDA" unicode="ك" d="M926 115q40 -41 121 -41v-74q-143 0 -193 104q-29 -51 -81.5 -77.5t-125.5 -26.5h-267q-85 0 -154.5 28.5t-111 87.5t-41.5 148q0 65 25 146h77q-23 -72 -23 -132q0 -103 64 -153.5t164 -50.5h267q162 0 162 165v495h77v-495q0 -83 40 -124zM604 411h-250v71h32 q-27 29 -27 75q0 31 17.5 58t48 43t67.5 16q39 0 82 -21l-33 -65q-25 11 -49 11q-26 0 -42 -15t-16 -39q0 -29 19.5 -46t48.5 -17h102v-71z"></glyph><glyph glyph-name="uniFEDC" unicode="ك" d="M657 74v-74q-140 0 -190 99q-31 -48 -88 -73.5t-134 -25.5h-245q-18 0 -28.5 11t-10.5 26t10.5 26t28.5 11h245q87 0 132 36.5t45 107.5q0 93 -96.5 149t-283.5 70l-10 101q96 72 215.5 124.5t248.5 75.5l15 -74q-125 -25 -232 -69t-176 -95q196 -24 296 -95t100 -187 v-15q15 -131 158 -129z"></glyph><glyph glyph-name="uniFEDB" unicode="ك" d="M325.5 441q86.5 -42 130 -120.5t43.5 -202.5v-118h-499q-18 0 -28.5 11t-10.5 26t10.5 26t28.5 11h422v44q0 110 -42.5 176.5t-125 99.5t-212.5 43l-10 101q96 72 215.5 124.5t248.5 75.5l15 -74q-125 -25 -232 -69t-176 -95q136 -17 222.5 -59z"></glyph><glyph glyph-name="uniFEDE" unicode="ل" d="M801 0h-117q-20 -124 -99.5 -185.5t-205.5 -61.5q-132 0 -221 69.5t-89 226.5q0 83 29 189h77q-30 -104 -30 -183q0 -125 66.5 -177t167.5 -52q234 0 234 259v649h77v-649v-11h111v-74z"></glyph><glyph glyph-name="uniFEE0" unicode="ل" d="M279 115q40 -41 121 -41v-74q-143 0 -193 104q-29 -51 -81.5 -77.5t-125.5 -26.5q-20 0 -31.5 10t-11.5 27t11.5 27t31.5 10q162 0 162 165v495h77v-495q0 -83 40 -124z"></glyph><glyph glyph-name="uniFEDF" unicode="ل" d="M162 734h77v-734h-239q-19 0 -31 10t-12 27t12 27t31 10h162v660z"></glyph><glyph glyph-name="uniFEE2" unicode="م" d="M610.5 492.5q55.5 -35.5 86.5 -97.5t31 -139q0 -79 -33.5 -137t-89 -89t-119.5 -31q-44 0 -87.5 15.5t-81.5 45.5v-53q-1 -122 -41.5 -188t-131.5 -66q-36 0 -76 10v73q31 -8 61 -8q62 0 87 44t25 135v239q0 82 30 146t85 100t128 36q71 0 126.5 -35.5zM564 94 q40 22 63.5 63.5t23.5 98.5q0 85 -45 140t-120 55q-79 0 -124 -56t-44 -149v-105q34 -34 75.5 -51.5t83.5 -17.5q47 0 87 22zM767 115q40 -41 121 -41v-74q-109 0 -163.5 60t-54.5 179h57q0 -83 40 -124z"></glyph><glyph glyph-name="uniFEE4" unicode="م" d="M500.5 492.5q55.5 -35.5 86.5 -97.5t31 -139q0 -79 -33.5 -137t-89 -89t-119.5 -31q-57 0 -111 25t-96 74l-1 -2q-23 -46 -66.5 -71t-101.5 -25q-19 0 -31 11t-12 28q0 16 11.5 25.5t31.5 9.5q37 0 65.5 17t41.5 47q11 25 16 56.5t6 37.5q6 49 15 84q26 103 84 157.5 t146 54.5q71 0 126.5 -35.5zM457 94.5q38 21.5 61 63t23 98.5q0 86 -45.5 140.5t-121.5 54.5q-59 0 -96 -35.5t-58 -107.5q-12 -41 -19 -92l-9 -46q38 -48 85.5 -72.5t95.5 -24.5q46 0 84 21.5zM657 115q40 -41 121 -41v-74q-109 0 -163.5 60t-54.5 179h57q0 -83 40 -124z "></glyph><glyph glyph-name="uniFEE3" unicode="م" d="M500.5 492.5q55.5 -35.5 86.5 -97.5t31 -139q0 -79 -33.5 -137t-89 -89t-119.5 -31q-57 0 -111 25t-96 74l-1 -2q-23 -46 -66.5 -71t-101.5 -25q-19 0 -31 11t-12 28q0 16 11.5 25.5t31.5 9.5q37 0 65.5 17t41.5 47q11 25 16 56.5t6 37.5q6 49 15 84q26 103 84 157.5 t146 54.5q71 0 126.5 -35.5zM457 94.5q38 21.5 61 63t23 98.5q0 86 -45.5 140.5t-121.5 54.5q-59 0 -96 -35.5t-58 -107.5q-12 -41 -19 -92l-9 -46q38 -48 85.5 -72.5t95.5 -24.5q46 0 84 21.5z"></glyph><glyph glyph-name="uniFEE6" unicode="ن" d="M347 388q-14 14 -14 33t14 32.5t33 13.5t32.5 -13.5t13.5 -32.5t-13.5 -33t-32.5 -14t-33 14zM801 0h-117q-20 -124 -99.5 -185.5t-205.5 -61.5q-132 0 -221 69.5t-89 226.5q0 83 29 189h77q-30 -104 -30 -183q0 -125 66.5 -177t167.5 -52q234 0 234 259v325h77v-325v-11 h111v-74z"></glyph><glyph glyph-name="uniFEE8" unicode="ن" d="M168 579q-14 14 -14 33t14 32.5t33 13.5t32.5 -13.5t13.5 -32.5t-13.5 -33t-32.5 -14t-33 14zM279 115q40 -41 121 -41v-74q-143 0 -193 104q-29 -51 -81.5 -77.5t-125.5 -26.5q-19 0 -31 11t-12 28q0 16 11.5 25.5t31.5 9.5q162 0 162 165v221h77v-221q0 -83 40 -124z "></glyph><glyph glyph-name="uniFEE7" unicode="ن" d="M162 460h77v-460h-239q-19 0 -31 11t-12 28q0 16 11.5 25.5t31.5 9.5h162v386zM168 579q-14 14 -14 33t14 32.5t33 13.5t32.5 -13.5t13.5 -32.5t-13.5 -33t-32.5 -14t-33 14z"></glyph><glyph glyph-name="uniFEEA" unicode="ه" d="M594 115q40 -41 121 -41v-74q-87 0 -145 38.5t-80 109.5q-52 -128 -207 -128q-61 0 -110 28.5t-77 81t-28 121.5q0 87 41 149t112.5 94t161.5 32q43 0 94 -8v56h77v-335q0 -83 40 -124zM393.5 118.5q39.5 26.5 61.5 73.5t22 108v147q-46 10 -92 10q-70 0 -124.5 -25 t-85 -72t-30.5 -111q0 -74 42 -115.5t116 -41.5q51 0 90.5 26.5z"></glyph><glyph glyph-name="uniFEEC" unicode="ه" d="M866 74v-74q-155 0 -200 122q-34 -59 -92.5 -90.5t-136.5 -31.5h-437q-16 0 -27.5 11.5t-11.5 27.5q0 15 11 24.5t28 10.5h113q-39 56 -39 130q0 55 22 103.5t65.5 78.5t103.5 30q61 0 104 -29.5t64.5 -77t21.5 -101.5v-133q83 6 130 65t47 158q0 76 -41.5 136 t-115.5 93.5t-167 33.5q-101 0 -206 -39l-23 71q122 44 235 44q114 0 204 -43t140.5 -120.5t50.5 -175.5q0 -35 -4 -60q0 -164 161 -164zM179.5 114q30.5 -40 85.5 -40h115v130q0 55 -31.5 96.5t-85.5 41.5q-53 0 -83.5 -40t-30.5 -94t30.5 -94z"></glyph><glyph glyph-name="uniFEEB" unicode="ه" d="M519.5 591q89.5 -46 139.5 -133.5t50 -209.5v-248h-709q-16 0 -27.5 11.5t-11.5 27.5q0 15 11 24.5t28 10.5h113q-39 56 -39 130q0 55 22 103.5t65.5 78.5t103.5 30q61 0 104 -29.5t64.5 -77t21.5 -101.5v-134h177v174q0 100 -41 170.5t-114.5 106.5t-168.5 36 q-101 0 -206 -39l-23 71q122 44 235 44q116 0 205.5 -46zM179.5 114q30.5 -40 85.5 -40h115v130q0 55 -31.5 96.5t-85.5 41.5q-53 0 -83.5 -40t-30.5 -94t30.5 -94z"></glyph><glyph glyph-name="uniFE94" unicode="ة" d="M210 627q-14 14 -14 33t14 32.5t33 13.5t32.5 -13.5t13.5 -32.5t-13.5 -33t-32.5 -14t-33 14zM370 627q-14 14 -14 33t14 32.5t33 13.5t32.5 -13.5t13.5 -32.5t-13.5 -33t-32.5 -14t-33 14zM564 115q40 -41 121 -41v-74q-87 0 -145 38.5t-80 109.5q-52 -128 -207 -128 q-61 0 -110 28.5t-77 81t-28 121.5q0 87 41 149t112.5 94t161.5 32q43 0 94 -8v56h77v-335q0 -83 40 -124zM363.5 118.5q39.5 26.5 61.5 73.5t22 108v147q-46 10 -92 10q-70 0 -124.5 -25t-85 -72t-30.5 -111q0 -74 42 -115.5t116 -41.5q51 0 90.5 26.5z"></glyph><glyph glyph-name="uniFEEE" unicode="و" d="M650 0h-103q-15 -123 -78.5 -186.5t-174.5 -63.5q-53 0 -107 11v72q56 -8 96 -8q87 0 132 41t57 134h-93q-109 0 -178.5 36t-101 94.5t-31.5 128.5q0 71 32.5 132t102.5 99t178 38h170v-454h99v-74zM476 74v4v372h-97q-123 0 -179.5 -54t-56.5 -134t57 -134t181 -54h95z "></glyph><glyph glyph-name="uniFE86" unicode="ؤ" d="M650 0h-103q-15 -123 -78.5 -186.5t-174.5 -63.5q-53 0 -107 11v72q56 -8 96 -8q87 0 132 41t57 134h-93q-109 0 -178.5 36t-101 94.5t-31.5 128.5q0 71 32.5 132t102.5 99t178 38h170v-454h99v-74zM476 74v4v372h-97q-123 0 -179.5 -54t-56.5 -134t57 -134t181 -54h95z M421 615h-217v59h28q-24 23 -24 62q0 40 33.5 69t82.5 29q33 0 71 -18l-29 -54q-21 9 -42 9q-23 0 -37 -12.5t-14 -32.5q0 -23 17 -37.5t42 -14.5h89v-59z"></glyph><glyph glyph-name="uniFEF0" unicode="ى" d="M840 0q-14 0 -42 2q17 -36 17 -85q0 -112 -78.5 -162t-251.5 -50h-59q-161 0 -257 74.5t-96 233.5q0 78 25 175h77q-25 -96 -25 -168q0 -242 276 -242h59q98 0 152 13t77.5 43t23.5 83q0 47 -19.5 70t-73.5 38l-58 14l-78 19l14 73l31 -8q114 -28 170.5 -38.5 t115.5 -10.5v-74z"></glyph><glyph glyph-name="uniFEF2" unicode="ي" d="M840 0q-14 0 -42 2q17 -36 17 -85q0 -112 -78.5 -162t-251.5 -50h-59q-161 0 -257 74.5t-96 233.5q0 78 25 175h77q-25 -96 -25 -168q0 -242 276 -242h59q98 0 152 13t77.5 43t23.5 83q0 47 -19.5 70t-73.5 38l-58 14l-78 19l14 73l31 -8q114 -28 170.5 -38.5 t115.5 -10.5v-74zM342 -454q-14 14 -14 33t14 32.5t33 13.5t32.5 -13.5t13.5 -32.5t-13.5 -33t-32.5 -14t-33 14zM502 -454q-14 14 -14 33t14 32.5t33 13.5t32.5 -13.5t13.5 -32.5t-13.5 -33t-32.5 -14t-33 14z"></glyph><glyph glyph-name="uniFEF4" unicode="ي" d="M279 115q40 -41 121 -41v-74q-143 0 -193 104q-29 -51 -81.5 -77.5t-125.5 -26.5q-19 0 -31 11t-12 28q0 16 11.5 25.5t31.5 9.5q162 0 162 165v221h77v-221q0 -83 40 -124zM87 -169q-14 14 -14 33t14 32.5t33 13.5t32.5 -13.5t13.5 -32.5t-13.5 -33t-32.5 -14t-33 14z M247 -169q-14 14 -14 33t14 32.5t33 13.5t32.5 -13.5t13.5 -32.5t-13.5 -33t-32.5 -14t-33 14z"></glyph><glyph glyph-name="uniFEF3" unicode="ي" d="M162 460h77v-460h-239q-19 0 -31 11t-12 28q0 16 11.5 25.5t31.5 9.5h162v386zM50 -169q-14 14 -14 33t14 32.5t33 13.5t32.5 -13.5t13.5 -32.5t-13.5 -33t-32.5 -14t-33 14zM210 -169q-14 14 -14 33t14 32.5t33 13.5t32.5 -13.5t13.5 -32.5t-13.5 -33t-32.5 -14t-33 14z "></glyph><glyph glyph-name="uniFE8A" unicode="ئ" d="M840 0q-14 0 -42 2q17 -36 17 -85q0 -112 -78.5 -162t-251.5 -50h-59q-161 0 -257 74.5t-96 233.5q0 78 25 175h77q-25 -96 -25 -168q0 -242 276 -242h59q98 0 152 13t77.5 43t23.5 83q0 47 -19.5 70t-73.5 38l-58 14l-78 19l14 73l31 -8q114 -28 170.5 -38.5 t115.5 -10.5v-74zM286 325h-217v59h28q-24 23 -24 62q0 40 33.5 69t82.5 29q33 0 71 -18l-29 -54q-21 9 -42 9q-23 0 -37 -12.5t-14 -32.5q0 -23 17 -37.5t42 -14.5h89v-59z"></glyph><glyph glyph-name="uniFE8C" unicode="ئ" d="M279 115q40 -41 121 -41v-74q-143 0 -193 104q-29 -51 -81.5 -77.5t-125.5 -26.5q-19 0 -31 11t-12 28q0 16 11.5 25.5t31.5 9.5q162 0 162 165v221h77v-221q0 -83 40 -124zM301 547h-217v59h28q-24 23 -24 62q0 40 33.5 69t82.5 29q33 0 71 -18l-29 -54q-21 9 -42 9 q-23 0 -37 -12.5t-14 -32.5q0 -23 17 -37.5t42 -14.5h89v-59z"></glyph><glyph glyph-name="uniFE8B" unicode="ئ" d="M162 460h77v-460h-239q-19 0 -31 11t-12 28q0 16 11.5 25.5t31.5 9.5h162v386zM301 547h-217v59h28q-24 23 -24 62q0 40 33.5 69t82.5 29q33 0 71 -18l-29 -54q-21 9 -42 9q-23 0 -37 -12.5t-14 -32.5q0 -23 17 -37.5t42 -14.5h89v-59z"></glyph><glyph glyph-name=".notdef" d="M500 800v-1000h-500v1000h500zM429 750h-358l179 -390zM50 676v-752l172 376zM450 -76v752l-172 -376zM429 -150l-179 390l-179 -390h358z"></glyph><glyph glyph-name="space" unicode=" "></glyph><glyph glyph-name="uni0621" unicode="ء" d="M542 95v-70q-138 1 -225 -15t-196 -66l-27 70q37 17 91 36q-56 26 -86.5 72.5t-30.5 111.5q0 64 30.5 115.5t84.5 80.5t121 29q76 0 158 -40l-37 -67q-62 31 -121 31q-70 0 -114.5 -42t-44.5 -107q0 -55 26 -89t63.5 -48t74.5 -14h12q80 12 221 12z"></glyph><glyph glyph-name="uni0627" unicode="ا" d="M90 734h77v-734h-77v734z"></glyph><glyph glyph-name="uni0623" unicode="أ" d="M238 751h-217v59h28q-24 23 -24 62q0 40 33.5 69t82.5 29q34 0 71 -18l-29 -54q-21 9 -42 9q-23 0 -37 -12.5t-14 -32.5q0 -23 17 -37.5t42 -14.5h89v-59zM91 664h77v-664h-77v664z"></glyph><glyph glyph-name="uni0625" unicode="إ" d="M90 734h77v-734h-77v734zM239 -318h-217v59h28q-24 22 -24 62t33.5 69t82.5 29q34 0 71 -18l-29 -54q-21 9 -42 9q-23 0 -37 -12.5t-14 -32.5q0 -23 17 -37.5t42 -14.5h89v-59z"></glyph><glyph glyph-name="uni0622" unicode="آ" d="M90 734h77v-734h-77v734zM-33 835v32q0 44 22 70.5t59 26.5q23 0 40.5 -8.5t30 -17.5t15.5 -12q20 -14 33 -20t30 -6q13 0 18.5 7.5t5.5 26.5v33h64v-33q0 -46 -23.5 -72.5t-64.5 -26.5q-29 0 -48.5 9.5t-50.5 29.5l-17 11q-8 6 -15.5 10.5t-13.5 4.5q-20 0 -20 -33v-32 h-65z"></glyph><glyph glyph-name="uni066E" unicode="ٮ" d="M216 33q-69 33 -105 94t-36 143q0 63 23 140h77q-22 -70 -22 -132q0 -97 58.5 -150.5t169.5 -53.5h428v386h77v-460h-505q-96 0 -165 33z"></glyph><glyph glyph-name="uni0628" unicode="ب" d="M216 33q-69 33 -105 94t-36 143q0 63 23 140h77q-22 -70 -22 -132q0 -97 58.5 -150.5t169.5 -53.5h428v386h77v-460h-505q-96 0 -165 33zM445 -169.5q-14 13.5 -14 33.5q0 19 14 32.5t33 13.5t32.5 -13.5t13.5 -32.5t-13.5 -33t-32.5 -14t-33 13.5z"></glyph><glyph glyph-name="uni067E" unicode="پ" d="M216 33q-69 33 -105 94t-36 143q0 63 23 140h77q-22 -70 -22 -132q0 -97 58.5 -150.5t169.5 -53.5h428v386h77v-460h-505q-96 0 -165 33zM445 -239q-14 -14 -14 -33t14 -32.5t33 -13.5t32.5 13.5t13.5 32.5t-13.5 33t-32.5 14t-33 -14zM365 -104q-14 -14 -14 -33 t14 -32.5t33 -13.5t32.5 13.5t13.5 32.5t-13.5 33t-32.5 14t-33 -14zM525 -104q-14 -14 -14 -33t14 -32.5t33 -13.5t32.5 13.5t13.5 32.5t-13.5 33t-32.5 14t-33 -14z"></glyph><glyph glyph-name="uni062A" unicode="ت" d="M216 33q-69 33 -105 94t-36 143q0 63 23 140h77q-22 -70 -22 -132q0 -97 58.5 -150.5t169.5 -53.5h428v386h77v-460h-505q-96 0 -165 33zM365 544q-14 14 -14 33t14 32.5t33 13.5t32.5 -13.5t13.5 -32.5t-13.5 -33t-32.5 -14t-33 14zM525 544q-14 14 -14 33t14 32.5 t33 13.5t32.5 -13.5t13.5 -32.5t-13.5 -33t-32.5 -14t-33 14z"></glyph><glyph glyph-name="uni062B" unicode="ث" d="M216 33q-69 33 -105 94t-36 143q0 63 23 140h77q-22 -70 -22 -132q0 -97 58.5 -150.5t169.5 -53.5h428v386h77v-460h-505q-96 0 -165 33zM451 679q-14 14 -14 33t14 32.5t33 13.5t32.5 -13.5t13.5 -32.5t-13.5 -33t-32.5 -14t-33 14zM371 544q-14 14 -14 33t14 32.5 t33 13.5t32.5 -13.5t13.5 -32.5t-13.5 -33t-32.5 -14t-33 14zM531 544q-14 14 -14 33t14 32.5t33 13.5t32.5 -13.5t13.5 -32.5t-13.5 -33t-32.5 -14t-33 14z"></glyph><glyph glyph-name="uni062C" unicode="ج" d="M717 74v-74h-363q-99 0 -144 -32.5t-45 -102.5t45.5 -103t143.5 -33h104v-73h-104q-130 0 -198 53.5t-68 155.5t68 155.5t198 53.5h226q-8 24 -19 86q-1 11 -5 31q-15 85 -40 135t-67 78q-36 24 -82.5 35.5t-94.5 11.5q-54 0 -98 -13l-14 75q54 14 117 14q59 0 116 -15 t103 -46q53 -36 86 -100t50 -163q11 -59 18.5 -84t22 -35t43.5 -10h1zM375 -162.5q-14 13.5 -14 33.5q0 19 14 32.5t33 13.5t32.5 -13.5t13.5 -32.5t-13.5 -33t-32.5 -14t-33 13.5z"></glyph><glyph glyph-name="uni0686" unicode="چ" d="M717 74v-74h-363q-99 0 -144 -32.5t-45 -102.5t45.5 -103t143.5 -33h104v-73h-104q-130 0 -198 53.5t-68 155.5t68 155.5t198 53.5h226q-8 24 -19 86q-1 11 -5 31q-15 85 -40 135t-67 78q-36 24 -82.5 35.5t-94.5 11.5q-54 0 -98 -13l-14 75q54 14 117 14q59 0 116 -15 t103 -46q53 -36 86 -100t50 -163q11 -59 18.5 -84t22 -35t43.5 -10h1zM326.395 -131.198q-11.1992 -11.1992 -11.1992 -26.3994q0 -15.1992 11.1992 -26q11.2002 -10.7998 26.4004 -10.7998q15.1992 0 25.999 10.7998q10.7998 10.8008 10.7998 26 q0 15.2002 -10.7998 26.3994q-10.7998 11.2002 -25.999 11.2002q-15.2002 0 -26.4004 -11.2002zM275.195 -44.7988q-11.1992 -11.2002 -11.1992 -26.4004q0 -15.1992 11.1992 -25.999q11.2002 -10.7998 26.4004 -10.7998q15.1992 0 25.999 10.7998t10.7998 25.999 q0 15.2002 -10.7998 26.4004q-10.7998 11.1992 -25.999 11.1992q-15.2002 0 -26.4004 -11.1992zM377.594 -44.7988q-11.1992 -11.2002 -11.1992 -26.4004q0 -15.1992 11.1992 -25.999q11.2002 -10.7998 26.4004 -10.7998q15.1992 0 25.999 10.7998t10.7998 25.999 q0 15.2002 -10.7998 26.4004q-10.7998 11.1992 -25.999 11.1992q-15.2002 0 -26.4004 -11.1992z"></glyph><glyph glyph-name="uni062D" unicode="ح" d="M717 74v-74h-363q-99 0 -144 -32.5t-45 -102.5t45.5 -103t143.5 -33h104v-73h-104q-130 0 -198 53.5t-68 155.5t68 155.5t198 53.5h226q-8 24 -19 86q-1 11 -5 31q-15 85 -40 135t-67 78q-36 24 -82.5 35.5t-94.5 11.5q-54 0 -98 -13l-14 75q54 14 117 14q59 0 116 -15 t103 -46q53 -36 86 -100t50 -163q11 -59 18.5 -84t22 -35t43.5 -10h1z"></glyph><glyph glyph-name="uni062E" unicode="خ" d="M717 74v-74h-363q-99 0 -144 -32.5t-45 -102.5t45.5 -103t143.5 -33h104v-73h-104q-130 0 -198 53.5t-68 155.5t68 155.5t198 53.5h226q-8 24 -19 86q-1 11 -5 31q-15 85 -40 135t-67 78q-36 24 -82.5 35.5t-94.5 11.5q-54 0 -98 -13l-14 75q54 14 117 14q59 0 116 -15 t103 -46q53 -36 86 -100t50 -163q11 -59 18.5 -84t22 -35t43.5 -10h1zM360 627q-14 14 -14 33t14 32.5t33 13.5t32.5 -13.5t13.5 -32.5t-13.5 -33t-32.5 -14t-33 14z"></glyph><glyph glyph-name="uni062F" unicode="د" d="M68 74h375v141q0 119 -72.5 177.5t-221.5 58.5h-25v77h27q179 0 274 -80t95 -230v-218h-452v74z"></glyph><glyph glyph-name="uni0630" unicode="ذ" d="M68 74h375v141q0 119 -72.5 177.5t-221.5 58.5h-25v77h27q179 0 274 -80t95 -230v-218h-452v74zM262 627q-14 14 -14 33t14 32.5t33 13.5t32.5 -13.5t13.5 -32.5t-13.5 -33t-32.5 -14t-33 14z"></glyph><glyph glyph-name="uni0631" unicode="ر" d="M79 -144q42 0 62 24.5t20 80.5v499h77v-499q0 -90 -36 -134.5t-110 -44.5q-41 0 -92 13l16 69q38 -8 63 -8z"></glyph><glyph glyph-name="uni0632" unicode="ز" d="M79 -144q42 0 62 24.5t20 80.5v499h77v-499q0 -90 -36 -134.5t-110 -44.5q-41 0 -92 13l16 69q38 -8 63 -8zM164 577q-14 14 -14 33t14 32.5t33 13.5t32.5 -13.5t13.5 -32.5t-13.5 -33t-32.5 -14t-33 14z"></glyph><glyph glyph-name="uni0633" unicode="س" d="M1349 528v-528h-189q-123 0 -172 99q-26 -48 -71.5 -73.5t-106.5 -25.5h-127q-20 -124 -99.5 -185.5t-205.5 -61.5q-132 0 -221 69.5t-89 226.5q0 83 29 189h77q-30 -104 -30 -183q0 -125 66.5 -177t167.5 -52q234 0 234 259v412h77v-412v-11h121q64 0 98 41.5t34 123.5 v258h77v-258q0 -81 36 -123t105 -42h112v454h77z"></glyph><glyph glyph-name="uni0634" unicode="ش" d="M1349 528v-528h-189q-123 0 -172 99q-26 -48 -71.5 -73.5t-106.5 -25.5h-127q-20 -124 -99.5 -185.5t-205.5 -61.5q-132 0 -221 69.5t-89 226.5q0 83 29 189h77q-30 -104 -30 -183q0 -125 66.5 -177t167.5 -52q234 0 234 259v412h77v-412v-11h121q64 0 98 41.5t34 123.5 v258h77v-258q0 -81 36 -123t105 -42h112v454h77zM819 633q-14 14 -14 33t14 32.5t33 13.5t32.5 -13.5t13.5 -32.5t-13.5 -33t-32.5 -14t-33 14zM1079 633q-14 14 -14 33t14 32.5t33 13.5t32.5 -13.5t13.5 -32.5t-13.5 -33t-32.5 -14t-33 14zM949 764q-14 14 -14 33t14 32.5 t33 13.5t32.5 -13.5t13.5 -32.5t-13.5 -33t-32.5 -14t-33 14z"></glyph><glyph glyph-name="uni0635" unicode="ص" d="M1315 0h-632q-20 -124 -99.5 -185.5t-205.5 -61.5q-132 0 -221 69.5t-89 226.5q0 83 29 189h77q-30 -104 -30 -183q0 -125 66.5 -177t167.5 -52q234 0 234 259v443h77v-199q43 93 128 146t198 53q87 0 155.5 -37t106.5 -103t38 -149v-239zM1238 239q0 96 -60 154t-163 58 q-89 0 -163.5 -41t-118.5 -111.5t-44 -153.5v-71h549v165z"></glyph><glyph glyph-name="uni0636" unicode="ض" d="M1315 0h-632q-20 -124 -99.5 -185.5t-205.5 -61.5q-132 0 -221 69.5t-89 226.5q0 83 29 189h77q-30 -104 -30 -183q0 -125 66.5 -177t167.5 -52q234 0 234 259v443h77v-199q43 93 128 146t198 53q87 0 155.5 -37t106.5 -103t38 -149v-239zM1238 239q0 96 -60 154t-163 58 q-89 0 -163.5 -41t-118.5 -111.5t-44 -153.5v-71h549v165zM941 627q-14 14 -14 33t14 32.5t33 13.5t32.5 -13.5t13.5 -32.5t-13.5 -33t-32.5 -14t-33 14z"></glyph><glyph glyph-name="uni0637" unicode="ط" d="M755.5 491q68.5 -37 106.5 -103t38 -149v-239h-832v74h131v660h76l-1 -404q44 92 128.5 145t197.5 53q87 0 155.5 -37zM823 239q0 96 -60 154t-163 58q-87 0 -160.5 -39.5t-118 -107.5t-47.5 -149v-81h549v165z"></glyph><glyph glyph-name="uni0638" unicode="ظ" d="M755.5 491q68.5 -37 106.5 -103t38 -149v-239h-832v74h131v660h76l-1 -404q44 92 128.5 145t197.5 53q87 0 155.5 -37zM823 239q0 96 -60 154t-163 58q-87 0 -160.5 -39.5t-118 -107.5t-47.5 -149v-81h549v165zM520 626q-14 14 -14 33t14 32.5t33 13.5t32.5 -13.5 t13.5 -32.5t-13.5 -33t-32.5 -14t-33 14z"></glyph><glyph glyph-name="uni0639" unicode="ع" d="M190 -32q-45 -32 -45 -103q0 -70 45.5 -103t143.5 -33h104v-73h-104q-130 0 -198 53.5t-68 155.5q0 85 46.5 136t137.5 67q-104 50 -104 187q0 80 38 142.5t102 96.5t140 34q41 0 81 -10t86 -31l-28 -72q-43 18 -77 26.5t-69 8.5q-56 0 -101 -24t-70 -68.5t-25 -102.5 q0 -90 54 -135.5t148 -45.5h191v-74h-284q-99 0 -144 -32z"></glyph><glyph glyph-name="uni063A" unicode="غ" d="M190 -32q-45 -32 -45 -103q0 -70 45.5 -103t143.5 -33h104v-73h-104q-130 0 -198 53.5t-68 155.5q0 85 46.5 136t137.5 67q-104 50 -104 187q0 80 38 142.5t102 96.5t140 34q41 0 81 -10t86 -31l-28 -72q-43 18 -77 26.5t-69 8.5q-56 0 -101 -24t-70 -68.5t-25 -102.5 q0 -90 54 -135.5t148 -45.5h191v-74h-284q-99 0 -144 -32zM371 627q-14 14 -14 33t14 32.5t33 13.5t32.5 -13.5t13.5 -32.5t-13.5 -33t-32.5 -14t-33 14z"></glyph><glyph glyph-name="uni0641" unicode="ف" d="M1053 0h-673q-85 0 -154.5 28.5t-111 87.5t-41.5 148q0 65 25 146h77q-23 -72 -23 -132q0 -103 64 -153.5t164 -50.5h260q-39 35 -58 83.5t-19 102.5q0 72 32 132.5t102.5 98t181.5 37.5h174v-528zM976 451h-99q-125 0 -181.5 -54.5t-56.5 -135.5t56.5 -134t183.5 -53h97 v377zM775 627q-14 14 -14 33t14 32.5t33 13.5t32.5 -13.5t13.5 -32.5t-13.5 -33t-32.5 -14t-33 14z"></glyph><glyph glyph-name="uni06A4" unicode="ڤ" d="M1053 0h-673q-85 0 -154.5 28.5t-111 87.5t-41.5 148q0 65 25 146h77q-23 -72 -23 -132q0 -103 64 -153.5t164 -50.5h260q-39 35 -58 83.5t-19 102.5q0 72 32 132.5t102.5 98t181.5 37.5h174v-528zM976 451h-99q-125 0 -181.5 -54.5t-56.5 -135.5t56.5 -134t183.5 -53h97 v377zM774 762q-14 14 -14 33t14 32.5t33 13.5t32.5 -13.5t13.5 -32.5t-13.5 -33t-32.5 -14t-33 14zM694 627q-14 14 -14 33t14 32.5t33 13.5t32.5 -13.5t13.5 -32.5t-13.5 -33t-32.5 -14t-33 14zM854 627q-14 14 -14 33t14 32.5t33 13.5t32.5 -13.5t13.5 -32.5t-13.5 -33 t-32.5 -14t-33 14z"></glyph><glyph glyph-name="uni06A1" unicode="ڡ" d="M1053 0h-673q-85 0 -154.5 28.5t-111 87.5t-41.5 148q0 65 25 146h77q-23 -72 -23 -132q0 -103 64 -153.5t164 -50.5h260q-39 35 -58 83.5t-19 102.5q0 72 32 132.5t102.5 98t181.5 37.5h174v-528zM976 451h-99q-125 0 -181.5 -54.5t-56.5 -135.5t56.5 -134t183.5 -53h97 v377z"></glyph><glyph glyph-name="uni0642" unicode="ق" d="M463 627q-14 14 -14 33t14 32.5t33 13.5t32.5 -13.5t13.5 -32.5t-13.5 -33t-32.5 -14t-33 14zM623 627q-14 14 -14 33t14 32.5t33 13.5t32.5 -13.5t13.5 -32.5t-13.5 -33t-32.5 -14t-33 14zM820 527v-514q0 -310 -371 -310q-171 0 -273.5 75.5t-102.5 234.5q0 56 15 125 h77q-14 -67 -14 -116q0 -129 78.5 -185.5t219.5 -56.5q105 0 170 23.5t95.5 74.5t30.5 135v92q-29 -49 -77.5 -77t-109.5 -28t-111.5 33t-80 90.5t-29.5 127.5q0 81 35.5 143t106 97.5t171.5 35.5h170zM663 98q38 24 60 64.5t22 88.5v199h-97q-118 0 -176.5 -53.5 t-58.5 -144.5q0 -52 22 -92.5t60 -63t85 -22.5q45 0 83 24z"></glyph><glyph glyph-name="uni0643" unicode="ك" d="M886 734v-734h-506q-85 0 -154.5 28.5t-111 87.5t-41.5 148q0 65 25 146h77q-23 -72 -23 -132q0 -103 64 -153.5t164 -50.5h429v660h77zM604 411h-250v71h32q-27 29 -27 75q0 31 17.5 58t48 43t67.5 16q39 0 82 -21l-33 -65q-25 11 -49 11q-26 0 -42 -15t-16 -39 q0 -29 19.5 -46t48.5 -17h102v-71z"></glyph><glyph glyph-name="uni0644" unicode="ل" d="M158 -177.5q-89 69.5 -89 226.5q0 83 29 189h77q-30 -104 -30 -183q0 -125 66.5 -177t167.5 -52q234 0 234 259v649h77v-649q0 -167 -82.5 -249.5t-228.5 -82.5q-132 0 -221 69.5z"></glyph><glyph glyph-name="uni0645" unicode="م" d="M610.5 492.5q55.5 -35.5 86.5 -97.5t31 -139q0 -79 -33.5 -137t-89 -89t-119.5 -31q-44 0 -87.5 15.5t-81.5 45.5v-53q-1 -122 -41.5 -188t-131.5 -66q-36 0 -76 10v73q31 -8 61 -8q62 0 87 44t25 135v239q0 82 30 146t85 100t128 36q71 0 126.5 -35.5zM564 94 q40 22 63.5 63.5t23.5 98.5q0 85 -45 140t-120 55q-79 0 -124 -56t-44 -149v-105q34 -34 75.5 -51.5t83.5 -17.5q47 0 87 22z"></glyph><glyph glyph-name="uni0646" unicode="ن" d="M347 388q-14 14 -14 33t14 32.5t33 13.5t32.5 -13.5t13.5 -32.5t-13.5 -33t-32.5 -14t-33 14zM158 -177.5q-89 69.5 -89 226.5q0 83 29 189h77q-30 -104 -30 -183q0 -125 66.5 -177t167.5 -52q234 0 234 259v325h77v-325q0 -167 -82.5 -249.5t-228.5 -82.5 q-132 0 -221 69.5z"></glyph><glyph glyph-name="uni0647" unicode="ه" d="M178.5 36.5q-55.5 36.5 -83 96t-27.5 127.5q0 69 28.5 130.5t84 99.5t133.5 38q77 0 132.5 -37.5t83.5 -98t28 -129.5q0 -68 -28 -128.5t-84 -97.5t-134 -37t-133.5 36.5zM405.5 100q37.5 26 56.5 68t19 90q0 50 -19.5 94t-57.5 71.5t-92 27.5q-53 0 -91 -27t-57.5 -70.5 t-19.5 -92.5t19.5 -91.5t58 -69t92.5 -26.5t91.5 26z"></glyph><glyph glyph-name="uni0629" unicode="ة" d="M207 627q-14 14 -14 33t14 32.5t33 13.5t32.5 -13.5t13.5 -32.5t-13.5 -33t-32.5 -14t-33 14zM367 627q-14 14 -14 33t14 32.5t33 13.5t32.5 -13.5t13.5 -32.5t-13.5 -33t-32.5 -14t-33 14zM178.5 36.5q-55.5 36.5 -83 96t-27.5 127.5q0 69 28.5 130.5t84 99.5t133.5 38 q77 0 132.5 -37.5t83.5 -98t28 -129.5q0 -68 -28 -128.5t-84 -97.5t-134 -37t-133.5 36.5zM405.5 100q37.5 26 56.5 68t19 90q0 50 -19.5 94t-57.5 71.5t-92 27.5q-53 0 -91 -27t-57.5 -70.5t-19.5 -92.5t19.5 -91.5t58 -69t92.5 -26.5t91.5 26z"></glyph><glyph glyph-name="uni0648" unicode="و" d="M551 527v-451q-1 -161 -65.5 -243.5t-191.5 -82.5q-54 0 -108 11l1 72q56 -8 96 -8q103 0 148 58.5t45 194.5v27q-29 -49 -77.5 -77t-109.5 -28t-111.5 33t-80 90.5t-29.5 127.5q0 81 35.5 143t106 97.5t171.5 35.5h170zM394 98q38 24 60 64.5t22 88.5v199h-97 q-118 0 -176.5 -53.5t-58.5 -144.5q0 -52 22 -92.5t60 -63t85 -22.5q45 0 83 24z"></glyph><glyph glyph-name="uni0624" unicode="ؤ" d="M551 527v-451q-1 -161 -65.5 -243.5t-191.5 -82.5q-54 0 -108 11l1 72q56 -8 96 -8q103 0 148 58.5t45 194.5v27q-29 -49 -77.5 -77t-109.5 -28t-111.5 33t-80 90.5t-29.5 127.5q0 81 35.5 143t106 97.5t171.5 35.5h170zM394 98q38 24 60 64.5t22 88.5v199h-97 q-118 0 -176.5 -53.5t-58.5 -144.5q0 -52 22 -92.5t60 -63t85 -22.5q45 0 83 24zM421 615h-217v59h28q-24 23 -24 62q0 40 33.5 69t82.5 29q33 0 71 -18l-29 -54q-21 9 -42 9q-23 0 -37 -12.5t-14 -32.5q0 -23 17 -37.5t42 -14.5h89v-59z"></glyph><glyph glyph-name="uni0649" unicode="ى" d="M155 50q0 -224 271 -224h99q108 0 160.5 35t52.5 106q0 41 -20 65t-50 36.5t-85 26.5q-47 13 -72.5 21t-51.5 22q-58 31 -83 71.5t-25 102.5q0 63 35.5 112t98 76.5t142.5 27.5q95 0 195 -39l-19 -74q-97 40 -185 40q-86 0 -138 -39t-52 -104q0 -41 15 -65t56 -42.5 t128 -42.5q57 -16 96.5 -35.5t65.5 -58t26 -101.5q0 -105 -74 -159.5t-216 -54.5h-99q-157 0 -253 70t-96 218q0 65 21 147h77q-20 -76 -20 -138z"></glyph><glyph glyph-name="uni064A" unicode="ي" d="M155 50q0 -224 271 -224h99q108 0 160.5 35t52.5 106q0 41 -20 65t-50 36.5t-85 26.5q-47 13 -72.5 21t-51.5 22q-58 31 -83 71.5t-25 102.5q0 63 35.5 112t98 76.5t142.5 27.5q95 0 195 -39l-19 -74q-97 40 -185 40q-86 0 -138 -39t-52 -104q0 -41 15 -65t56 -42.5 t128 -42.5q57 -16 96.5 -35.5t65.5 -58t26 -101.5q0 -105 -74 -159.5t-216 -54.5h-99q-157 0 -253 70t-96 218q0 65 21 147h77q-20 -76 -20 -138zM329 -414q-14 14 -14 33t14 32.5t33 13.5t32.5 -13.5t13.5 -32.5t-13.5 -33t-32.5 -14t-33 14zM489 -414q-14 14 -14 33 t14 32.5t33 13.5t32.5 -13.5t13.5 -32.5t-13.5 -33t-32.5 -14t-33 14z"></glyph><glyph glyph-name="uni0626" unicode="ئ" d="M155 50q0 -224 271 -224h99q108 0 160.5 35t52.5 106q0 41 -20 65t-50 36.5t-85 26.5q-47 13 -72.5 21t-51.5 22q-58 31 -83 71.5t-25 102.5q0 63 35.5 112t98 76.5t142.5 27.5q95 0 195 -39l-19 -74q-97 40 -185 40q-86 0 -138 -39t-52 -104q0 -41 15 -65t56 -42.5 t128 -42.5q57 -16 96.5 -35.5t65.5 -58t26 -101.5q0 -105 -74 -159.5t-216 -54.5h-99q-157 0 -253 70t-96 218q0 65 21 147h77q-20 -76 -20 -138zM286 325h-217v59h28q-24 23 -24 62q0 40 33.5 69t82.5 29q33 0 71 -18l-29 -54q-21 9 -42 9q-23 0 -37 -12.5t-14 -32.5 q0 -23 17 -37.5t42 -14.5h89v-59z"></glyph><glyph glyph-name="uni0640" unicode="ـ" d="M-31 64q12 10 31 10h200v-74h-200q-20 0 -31.5 10t-11.5 27t12 27z"></glyph><glyph glyph-name="zero" unicode="0" d="M202 36.5q-67 48.5 -103.5 131t-36.5 180.5v2q0 98 37 181t104.5 132t155.5 49t154.5 -48.5t103 -131t36.5 -180.5v-2q0 -98 -37 -181t-104.5 -132t-154.5 -49q-88 0 -155 48.5zM470.5 99.5q48.5 39.5 74.5 105.5t26 143v2q0 77 -26.5 143.5t-75.5 106.5t-112 40 q-64 0 -112 -39.5t-74.5 -105t-26.5 -143.5v-2q0 -77 27 -143.5t76 -106.5t112 -40t111.5 39.5z"></glyph><glyph glyph-name="one" unicode="1" d="M47 582l-19 64l171 59h58v-705h-78v623z"></glyph><glyph glyph-name="two" unicode="2" d="M302 285q82 73 114 120.5t32 99.5q0 60 -41 97t-100 37q-57 0 -100.5 -29t-87.5 -91l-58 42q51 76 108 112.5t144 36.5q62 0 111.5 -25.5t77.5 -71t28 -101.5v-2q0 -50 -18 -91t-55 -82t-104 -99l-187 -166h371v-72h-489v61z"></glyph><glyph glyph-name="three" unicode="3" d="M161 21.5q-66 33.5 -111 91.5l58 51q84 -104 204 -104q65 0 109 38t44 98v2q0 64 -54 99.5t-142 35.5h-45l-16 47l221 249h-342v71h447v-58l-220 -244q100 -8 165.5 -57.5t65.5 -139.5v-2q0 -61 -31 -109t-84.5 -75t-118.5 -27q-84 0 -150 33.5z"></glyph><glyph glyph-name="four" unicode="4" d="M63 166l-20 58l396 481h70v-473h108v-66h-108v-166h-77v166h-369zM432 593l-294 -361h294v361z"></glyph><glyph glyph-name="five" unicode="5" d="M168 18q-64 30 -115 81l52 57q99 -96 199 -96q49 0 87.5 20.5t60 55.5t21.5 79v2q0 65 -48.5 106t-125.5 41q-72 0 -147 -40l-53 35l20 341h403v-73h-334l-15 -224q35 15 66.5 23t71.5 8q68 0 123.5 -26t87 -74.5t31.5 -113.5v-2q0 -68 -32 -120t-89 -81t-129 -29 q-71 0 -135 30z"></glyph><glyph glyph-name="six" unicode="6" d="M230 6.5q-47 18.5 -81 52.5q-45 45 -66.5 107t-21.5 164v2q0 107 35 193.5t101 136.5t155 50q60 0 109 -20t98 -60l-46 -61q-41 35 -80 52t-85 17q-65 0 -111.5 -41t-70.5 -109.5t-24 -149.5v-10q74 108 200 108q65 0 120.5 -26.5t88.5 -75.5t33 -113v-2 q0 -66 -33 -119.5t-90.5 -83.5t-127.5 -30q-56 0 -103 18.5zM422.5 79q38.5 21 59.5 57.5t21 81.5v2q0 43 -21.5 77t-60.5 53.5t-89 19.5q-51 0 -91 -21.5t-62 -57t-22 -74.5v-2q0 -44 23 -80t63 -56.5t91 -20.5q50 0 88.5 21z"></glyph><glyph glyph-name="seven" unicode="7" d="M68 628v72h475v-59l-318 -641h-88l316 628h-385z"></glyph><glyph glyph-name="eight" unicode="8" d="M181 15q-60 25 -94.5 70.5t-34.5 102.5v2q0 60 39 104t105 68q-120 55 -120 161v2q0 53 32.5 95t87.5 66t119 24t119 -24t87.5 -66t32.5 -95v-2q0 -106 -120 -161q66 -25 105 -68t39 -103v-2q0 -58 -34.5 -103.5t-94.5 -70.5t-134 -25t-134 25zM429 426q46 36 46 92v2 q0 34 -21 61.5t-57.5 43.5t-81.5 16q-69 0 -114.5 -34.5t-45.5 -86.5v-2q0 -56 46 -92t114 -36t114 36zM412.5 76.5q41.5 17.5 63.5 47.5t22 66v2q0 38 -24.5 68.5t-66 47.5t-92.5 17t-92.5 -17t-66 -47.5t-24.5 -68.5v-2q0 -35 22 -65t63.5 -48t97.5 -18t97.5 17.5z"></glyph><glyph glyph-name="nine" unicode="9" d="M409 100.5q47 40.5 71.5 107.5t24.5 144v14q-72 -111 -198 -111q-71 0 -126.5 28t-86.5 77.5t-31 111.5v2q0 66 32 120.5t89.5 86t130.5 31.5q112 0 184 -72q42 -42 64.5 -106.5t22.5 -164.5v-2q0 -110 -36.5 -196t-103 -134.5t-151.5 -48.5q-64 0 -115.5 22.5 t-100.5 63.5l46 61q44 -38 85 -56.5t87 -18.5q65 0 112 40.5zM407.5 345.5q39.5 22.5 61 58.5t21.5 77v2q0 44 -22.5 80.5t-63.5 57.5t-92 21t-89 -22.5t-58.5 -60t-20.5 -81.5v-2q0 -67 48 -110t124 -43q52 0 91.5 22.5z"></glyph><glyph glyph-name="fraction" unicode="⁄" d="M476 700h54l-248 -359l-228 -341h-54l248 359z"></glyph><glyph glyph-name="uni066B" unicode="٫" d="M123 -28.5q16 20.5 13 52.5h-36v105h92v-90q0 -60 -26.5 -92t-84.5 -45l-12 35q38 14 54 34.5z"></glyph><glyph glyph-name="uni066C" unicode="٬" d="M105.599 -24.3994q12.7998 16.3994 10.3994 41.999h-28.7998v83.999h73.5996v-71.999q0 -47.999 -21.2002 -73.5986q-21.1992 -25.5996 -67.5986 -36l-9.59961 28q30.3994 11.1992 43.1992 27.5996z"></glyph><glyph glyph-name="uni0660" unicode="٠" d="M166.25 342.5v-131.25h-115v131.25h115z"></glyph><glyph glyph-name="uni0661" unicode="١" d="M60 734h77v-734h-77v734z"></glyph><glyph glyph-name="uni0662" unicode="٢" d="M581 734v-107q0 -79 -32.5 -137.5t-90.5 -90t-133 -31.5q-61 0 -107 21.5t-74 62.5l14 -452h-77l-21 734h76l3 -88l1 -40v-16q4 -70 51.5 -108.5t121.5 -38.5q85 0 138 49t53 135v107h77z"></glyph><glyph glyph-name="uni0663" unicode="٣" d="M739 734v-130q0 -116 -46 -177t-123 -61q-117 0 -146 123q-19 -61 -59 -92t-95 -31q-84 0 -125 59l12 -425h-77l-20 734h76l5 -172q7 -64 34.5 -93.5t77.5 -29.5q58 0 83.5 37.5t25.5 127.5v130h77v-130q0 -86 27.5 -125.5t83.5 -39.5q59 0 85.5 37.5t26.5 127.5v130h77z "></glyph><glyph glyph-name="uni0664" unicode="٤" d="M512 77v-77h-219q-75 0 -127.5 30.5t-79 80t-26.5 105.5q0 65 36 119.5t102 77.5q-51 22 -78.5 63t-27.5 88q0 44 24.5 83t72.5 63t115 24h173v-76l-173 -1q-64 0 -99.5 -33.5t-35.5 -79.5q0 -30 16 -57t48 -43.5t76 -16.5h168v-77h-190q-48 0 -82.5 -19t-51.5 -49.5 t-17 -65.5q0 -36 18 -67.5t53.5 -51.5t84.5 -20h220z"></glyph><glyph glyph-name="uni0665" unicode="٥" d="M91 497q31 91 86 139t127 48q71 0 126.5 -47.5t86.5 -138.5t31 -215q0 -135 -64 -209t-182 -74q-117 0 -179.5 73t-62.5 208q0 125 31 216zM449 457.5q-22 73.5 -59.5 111.5t-85.5 38t-86 -38t-59.5 -112t-21.5 -176q0 -103 41 -153t125 -50q168 0 168 205 q0 101 -22 174.5z"></glyph><glyph glyph-name="uni0666" unicode="٦" d="M463 0l-31 657h-372v77h444l35 -734h-76z"></glyph><glyph glyph-name="uni0667" unicode="٧" d="M629 734l-242 -734h-88l-239 734h79l205 -623l206 623h79z"></glyph><glyph glyph-name="uni0668" unicode="٨" d="M60 0l242 734h88l239 -734h-79l-205 623l-206 -623h-79z"></glyph><glyph glyph-name="uni0669" unicode="٩" d="M502 0l-15 363q-27 -49 -77 -76t-116 -27q-75 0 -128 32.5t-79.5 85t-26.5 112.5q0 63 28.5 119t85 90.5t136.5 34.5q69 0 124 -30t87 -83.5t35 -123.5l22 -497h-76zM432.5 377q48.5 44 48.5 114q0 73 -48.5 119.5t-124.5 46.5q-55 0 -94 -23t-59 -60.5t-20 -79.5 t19.5 -79t59 -59.5t95.5 -22.5q75 0 123.5 44z"></glyph><glyph glyph-name="asterisk" unicode="*" d="M96 449l-27 47l116 53l-116 54l27 46l103 -72l-10 125h52l-10 -125l103 72l27 -46l-116 -54l116 -53l-27 -47l-103 73l10 -125h-52l10 125z"></glyph><glyph glyph-name="backslash" unicode="\" d="M65 798l464 -926h-71l-464 926h71z"></glyph><glyph glyph-name="colon" unicode=":" d="M174 517v-105h-92v105h92zM174 105v-105h-92v105h92z"></glyph><glyph glyph-name="comma" unicode="," d="M100 -52.5q16 20.5 13 52.5h-36v105h92v-90q0 -60 -26.5 -92t-84.5 -45l-12 35q38 14 54 34.5z"></glyph><glyph glyph-name="exclam" unicode="!" d="M91 700h90v-56l-24 -446h-43l-23 446v56zM182 105v-105h-92v105h92z"></glyph><glyph glyph-name="numbersign" unicode="#" d="M485 177l-30 -177h-70l30 177h-191l-30 -177h-70l30 177h-109v69h121l36 212h-118v69h130l30 173h70l-30 -173h191l30 173h70l-30 -173h109v-69h-121l-36 -212h118v-69h-130zM427 245l36 214h-190l-37 -214h191z"></glyph><glyph glyph-name="period" unicode="." d="M169 105v-105h-92v105h92z"></glyph><glyph glyph-name="question" unicode="?" d="M210 365q96 2 147.5 39.5t51.5 101.5v2q0 55 -40 92.5t-106 37.5q-54 0 -98 -24t-84 -70l-51 49q46 56 102.5 86t132.5 30q66 0 117 -25.5t79 -70.5t28 -102v-2q0 -89 -58 -139.5t-150 -63.5l-10 -108h-51l-15 162zM291 105v-105h-92v105h92z"></glyph><glyph glyph-name="quotedbl" unicode="&quot;" d="M188 700v-5l-81 -267h-42l30 272h93zM383 700v-5l-81 -267h-42l31 272h92z"></glyph><glyph glyph-name="quotesingle" unicode="'" d="M189 700v-5l-81 -267h-43l30 272h94z"></glyph><glyph glyph-name="semicolon" unicode=";" d="M174 517v-105h-92v105h92zM105 -52.5q16 20.5 13 52.5h-36v105h92v-90q0 -60 -26.5 -92t-84.5 -45l-12 35q38 14 54 34.5z"></glyph><glyph glyph-name="slash" unicode="/" d="M514 798l-464 -926h-71l464 926h71z"></glyph><glyph glyph-name="underscore" unicode="_" d="M0 -97h604v-63h-604v63z"></glyph><glyph glyph-name="braceleft" unicode="{" d="M281.5 -98q-47.5 27 -65 65t-17.5 94l1 76q0 61 -26.5 90.5t-91.5 29.5h-26v60h26q65 0 91.5 29.5t26.5 90.5l-1 76q0 56 17.5 94t65 65t134.5 43l12 -51q-70 -18 -102.5 -37.5t-43 -47t-10.5 -76.5l1 -75q0 -60 -26.5 -92.5t-77.5 -48.5q53 -17 78.5 -49t25.5 -92 l-1 -75q0 -49 10.5 -76.5t43 -47t102.5 -37.5l-12 -51q-87 16 -134.5 43z"></glyph><glyph glyph-name="braceright" unicode="}" d="M56 -90q70 18 102.5 37.5t43 47t10.5 76.5l-1 75q0 60 25.5 92t78.5 49q-51 16 -77.5 48.5t-26.5 92.5l1 75q0 49 -10.5 76.5t-43 47t-102.5 37.5l12 51q87 -16 134.5 -43t65 -65t17.5 -94l-1 -76q0 -61 26.5 -90.5t91.5 -29.5h26v-60h-26q-65 0 -91.5 -29.5t-26.5 -90.5 l1 -76q0 -56 -17.5 -94t-65 -65t-134.5 -43z"></glyph><glyph glyph-name="bracketleft" unicode="[" d="M380 700v-60h-213v-710h213v-60h-286v830h286z"></glyph><glyph glyph-name="bracketright" unicode="]" d="M273 -70v710h-214v60h287v-830h-287v60h214z"></glyph><glyph glyph-name="parenleft" unicode="(" d="M139 43q-71 108 -71 244t71 244t206 184l33 -51q-116 -74 -174 -166.5t-58 -210.5t58 -210.5t174 -166.5l-33 -51q-135 76 -206 184z"></glyph><glyph glyph-name="parenright" unicode=")" d="M230 76.5q58 92.5 58 210.5t-58 210.5t-174 166.5l33 51q135 -76 206 -184t71 -244t-71 -244t-206 -184l-33 51q116 74 174 166.5z"></glyph><glyph glyph-name="endash" unicode="–" d="M463 339v-77h-398v77h398z"></glyph><glyph glyph-name="hyphen" unicode="-" d="M343 341v-81h-278v81h278z"></glyph><glyph glyph-name="guillemotleft" unicode="«" d="M48 263l165 212l56 -32l-133 -183l133 -186l-56 -32l-165 213v8zM271 263l165 212l55 -32l-132 -183l132 -186l-55 -32l-165 213v8z"></glyph><glyph glyph-name="guillemotright" unicode="»" d="M103 42l-55 32l132 186l-132 183l55 32l165 -212v-8zM326 42l-56 32l133 186l-133 183l56 32l165 -212v-8z"></glyph><glyph glyph-name="guilsinglleft" unicode="‹" d="M48 263l165 212l56 -32l-133 -183l133 -186l-56 -32l-165 213v8z"></glyph><glyph glyph-name="guilsinglright" unicode="›" d="M104 42l-56 32l133 186l-133 183l56 32l165 -212v-8z"></glyph><glyph glyph-name="quotedblbase" unicode="„" d="M100 -52.5q16 20.5 13 52.5h-36v105h92v-90q0 -60 -26.5 -92t-84.5 -45l-12 35q38 14 54 34.5zM300 -52.5q16 20.5 13 52.5h-36v105h92v-90q0 -60 -26.5 -92t-84.5 -45l-12 35q38 14 54 34.5z"></glyph><glyph glyph-name="quotedblleft" unicode="“" d="M98 660q26 32 84 45l12 -35q-37 -13 -53 -34t-14 -53h37v-105h-92v90q0 60 26 92zM298 660q26 32 84 45l12 -35q-37 -13 -53 -34t-14 -53h37v-105h-92v90q0 60 26 92z"></glyph><glyph glyph-name="quotedblright" unicode="”" d="M105 542.5q16 20.5 13 52.5h-36v105h92v-90q0 -60 -26.5 -92t-84.5 -45l-12 35q38 14 54 34.5zM305 542.5q16 20.5 13 52.5h-36v105h92v-90q0 -60 -26.5 -92t-84.5 -45l-12 35q38 14 54 34.5z"></glyph><glyph glyph-name="quoteleft" unicode="‘" d="M98 660q26 32 84 45l12 -35q-37 -13 -53 -34t-14 -53h37v-105h-92v90q0 60 26 92z"></glyph><glyph glyph-name="quoteright" unicode="’" d="M105 542.5q16 20.5 13 52.5h-36v105h92v-90q0 -60 -26.5 -92t-84.5 -45l-12 35q38 14 54 34.5z"></glyph><glyph glyph-name="quotesinglbase" unicode="‚" d="M100 -52.5q16 20.5 13 52.5h-36v105h92v-90q0 -60 -26.5 -92t-84.5 -45l-12 35q38 14 54 34.5z"></glyph><glyph glyph-name="uni060C" unicode="،" d="M102 162.5q-16 -20.5 -13 -52.5h36v-105h-92v90q0 60 26.5 92t84.5 45l12 -35q-38 -14 -54 -34.5z"></glyph><glyph glyph-name="uni061B" unicode="؛" d="M55 -28v105h92v-105h-92zM124 541.5q-16 -20.5 -13 -52.5h36v-105h-92v90q0 60 26.5 92t84.5 45l12 -35q-38 -14 -54 -34.5z"></glyph><glyph glyph-name="uni061F" unicode="؟" d="M309 365q-96 2 -147.5 39.5t-51.5 101.5v2q0 55 40 92.5t106 37.5q54 0 98 -24t84 -70l51 49q-46 56 -102.5 86t-132.5 30q-66 0 -117 -25.5t-79 -70.5t-28 -102v-2q0 -89 58 -139.5t150 -63.5l10 -108h51l15 162zM228 105v-105h92v105h-92z"></glyph><glyph glyph-name="uni066D" unicode="٭" d="M96 449l-27 47l116 53l-116 54l27 46l103 -72l-10 125h52l-10 -125l103 72l27 -46l-116 -54l116 -53l-27 -47l-103 73l10 -125h-52l10 125z"></glyph><glyph glyph-name="uniFD3E" unicode="﴾" d="M139 43q-71 108 -71 244t71 244t206 184l33 -51q-116 -74 -174 -166.5t-58 -210.5t58 -210.5t174 -166.5l-33 -51q-135 76 -206 184z"></glyph><glyph glyph-name="uniFD3F" unicode="﴿" d="M243 76.5q58 92.5 58 210.5t-58 210.5t-174 166.5l33 51q135 -76 206 -184t71 -244t-71 -244t-206 -184l-33 51q116 74 174 166.5z"></glyph><glyph glyph-name="dollar" unicode="$" d="M353 630v-247q114 -25 165 -71t51 -123q0 -80 -59 -131.5t-154 -57.5v-98h-64v100q-129 12 -236 103l45 60q47 -42 93.5 -65.5t100.5 -30.5v251q-113 27 -163 71.5t-50 122.5v1q0 51 27 92t74.5 65.5t108.5 27.5v58h64v-60q54 -6 99.5 -25.5t91.5 -54.5l-43 -60 q-74 60 -151 72zM187.5 446q28.5 -28 107.5 -49v236q-62 -3 -99 -34.5t-37 -78.5q0 -46 28.5 -74zM462.5 258q-29.5 28 -109.5 49v-241q64 4 101.5 36t37.5 81v1q0 46 -29.5 74z"></glyph><glyph glyph-name="plus" unicode="+" d="M68 316v72h207v206h75v-206h207v-72h-207v-206h-75v206h-207z"></glyph><glyph glyph-name="minus" unicode="−" d="M68 389h489v-74h-489v74z"></glyph><glyph glyph-name="multiply" unicode="×" d="M138 127l-50 50l176 174l-176 174l52 52l174 -177l174 177l50 -50l-177 -174l177 -174l-52 -52l-174 177z"></glyph><glyph glyph-name="divide" unicode="÷" d="M363 603v-104h-101v104h101zM68 387h489v-70h-489v70zM363 205v-103h-101v103h101z"></glyph><glyph glyph-name="equal" unicode="=" d="M545 506v-74h-465v74h465zM545 272v-74h-465v74h465z"></glyph><glyph glyph-name="greater" unicode="&gt;" d="M477 351l-385 189v78l469 -233v-66l-469 -233v77z"></glyph><glyph glyph-name="less" unicode="&lt;" d="M542 86l-469 233v66l469 233v-78l-385 -189l385 -188v-77z"></glyph><glyph glyph-name="plusminus" unicode="±" d="M349 168h-73v196h-199v70h199v196h73v-196h200v-70h-200v-196zM77 69h472v-69h-472v69z"></glyph><glyph glyph-name="asciitilde" unicode="~" d="M274 251.5q-16 5.5 -40 15.5q-17 8 -34 14t-28 6q-19 0 -29.5 -10.5t-22.5 -39.5l-47 13q15 57 37 81.5t58 24.5q16 0 32 -5.5t40 -15.5q44 -20 62 -20q19 0 29.5 11t22.5 39l46 -13q-15 -57 -36.5 -81.5t-57.5 -24.5q-16 0 -32 5.5z"></glyph><glyph glyph-name="percent" unicode="%" d="M128 374.5q-36 24.5 -56 65t-20 87.5v2q0 48 20 89t56.5 65.5t83.5 24.5q46 0 81.5 -24.5t55.5 -65t20 -87.5v-2q0 -48 -20 -89t-56.5 -65.5t-82.5 -24.5t-82 24.5zM709 700l-270 -367l-243 -333h-72l270 365l244 335h71zM144.5 617q-25.5 -35 -25.5 -86v-2 q0 -52 27 -87.5t66 -35.5q40 0 65.5 35t25.5 86v2q0 52 -27 87.5t-66 35.5q-40 0 -65.5 -35zM540.5 16.5q-35.5 24.5 -55.5 65t-20 87.5v2q0 48 20 89t56.5 65.5t82.5 24.5t82 -24.5t55.5 -65t19.5 -87.5v-2q0 -48 -20 -89t-56 -65.5t-83 -24.5q-46 0 -81.5 24.5zM689.5 83 q25.5 35 25.5 86v2q0 52 -27 87.5t-66 35.5q-40 0 -65.5 -35t-25.5 -86v-2q0 -52 27 -87.5t66 -35.5q40 0 65.5 35z"></glyph><glyph glyph-name="at" unicode="@" d="M272 -103q-102 59 -160.5 159t-58.5 218t58.5 218.5t159 160t220.5 59.5q119 0 219.5 -55t158.5 -146t58 -195q0 -81 -26.5 -136t-69.5 -82t-91 -27q-53 0 -89 22.5t-51 61.5q-33 -39 -73 -61.5t-92 -22.5q-49 0 -90 23t-65 64t-24 95q0 68 33.5 125.5t87 90.5t110.5 33 q54 0 89.5 -23.5t56.5 -59.5l13 69l67 -9l-40 -227q-7 -39 -7 -61q0 -38 22.5 -59.5t62.5 -21.5q37 0 69 22.5t51.5 69t19.5 114.5q0 92 -52.5 175.5t-144.5 135t-203 51.5q-113 0 -205 -54.5t-144.5 -147t-52.5 -202.5q0 -111 52.5 -203t146.5 -145.5t211 -53.5 q73 0 131 16.5t118 51.5l16 -27q-60 -37 -125 -56t-140 -19q-125 0 -227 59zM507.5 146q28.5 13 50.5 35q26 26 41 60.5t15 71.5q0 55 -34.5 91t-87.5 36q-30 0 -58.5 -13t-51.5 -36q-25 -26 -39.5 -60.5t-14.5 -72.5q0 -58 34 -91.5t88 -33.5q29 0 57.5 13z"></glyph><glyph glyph-name="bar" unicode="|" d="M184 798v-926h-65v926h65z"></glyph><glyph glyph-name="asciicircum" unicode="^" d="M280 702l155 -209h-68l-118 154l-118 -154h-66l155 209h60z"></glyph><glyph glyph-name="uni066A" unicode="٪" d="M184 731v-105h-92v105h92zM585 700l-270 -367l-243 -333h-72l270 365l244 335h71zM504 105v-105h-92v105h92z"></glyph><glyph glyph-name="uni0326" unicode="̦" d="M-267.5 -192.5q14.5 14.5 12.5 39.5h-40v83h90v-71q0 -47 -26 -72t-78 -30l-7 30q34 6 48.5 20.5z"></glyph><glyph glyph-name="ring" unicode="˚" d="M177 622.5q-31 29.5 -31 69.5v2q0 40 31 69.5t73 29.5t73 -29.5t31 -69.5v-2q0 -40 -31 -69.5t-73 -29.5t-73 29.5zM293.5 649q18.5 18 18.5 43v2q0 25 -18.5 43t-43.5 18t-43.5 -18t-18.5 -43v-2q0 -25 18.5 -43t43.5 -18t43.5 18z"></glyph><glyph glyph-name="uniFBB2" unicode="﮲" d="M1 9q-14 14 -14 33t14 32.5t33 13.5t32.5 -13.5t13.5 -32.5t-13.5 -33t-32.5 -14t-33 14z"></glyph><glyph glyph-name="uniFBB3" unicode="﮳" d="M1 -68.5q-14 13.5 -14 33.5q0 19 14 32.5t33 13.5t32.5 -13.5t13.5 -32.5t-13.5 -33t-32.5 -14t-33 13.5z"></glyph><glyph glyph-name="uniFBB4" unicode="﮴" d="M1 9q-14 14 -14 33t14 32.5t33 13.5t32.5 -13.5t13.5 -32.5t-13.5 -33t-32.5 -14t-33 14zM161 9q-14 14 -14 33t14 32.5t33 13.5t32.5 -13.5t13.5 -32.5t-13.5 -33t-32.5 -14t-33 14z"></glyph><glyph glyph-name="uniFBB5" unicode="﮵" d="M1 -69q-14 14 -14 33t14 32.5t33 13.5t32.5 -13.5t13.5 -32.5t-13.5 -33t-32.5 -14t-33 14zM161 -69q-14 14 -14 33t14 32.5t33 13.5t32.5 -13.5t13.5 -32.5t-13.5 -33t-32.5 -14t-33 14z"></glyph><glyph glyph-name="uniFBB8" unicode="﮸" d="M81 29q-14 -14 -14 -33t14 -32.5t33 -13.5t32.5 13.5t13.5 32.5t-13.5 33t-32.5 14t-33 -14zM1 164q-14 -14 -14 -33t14 -32.5t33 -13.5t32.5 13.5t13.5 32.5t-13.5 33t-32.5 14t-33 -14zM161 164q-14 -14 -14 -33t14 -32.5t33 -13.5t32.5 13.5t13.5 32.5t-13.5 33 t-32.5 14t-33 -14z"></glyph><glyph glyph-name="uniFBB9" unicode="﮹" d="M81 -137q-14 -14 -14 -33t14 -32.5t33 -13.5t32.5 13.5t13.5 32.5t-13.5 33t-32.5 14t-33 -14zM1 -2q-14 -14 -14 -33t14 -32.5t33 -13.5t32.5 13.5t13.5 32.5t-13.5 33t-32.5 14t-33 -14zM161 -2q-14 -14 -14 -33t14 -32.5t33 -13.5t32.5 13.5t13.5 32.5t-13.5 33 t-32.5 14t-33 -14z"></glyph><glyph glyph-name="uniFBB6" unicode="﮶" d="M81 164q-14 14 -14 33t14 32.5t33 13.5t32.5 -13.5t13.5 -32.5t-13.5 -33t-32.5 -14t-33 14zM1 29q-14 14 -14 33t14 32.5t33 13.5t32.5 -13.5t13.5 -32.5t-13.5 -33t-32.5 -14t-33 14zM161 29q-14 14 -14 33t14 32.5t33 13.5t32.5 -13.5t13.5 -32.5t-13.5 -33t-32.5 -14 t-33 14z"></glyph><glyph glyph-name="uniFBB7" unicode="﮷" d="M81 17q-14 14 -14 33t14 32.5t33 13.5t32.5 -13.5t13.5 -32.5t-13.5 -33t-32.5 -14t-33 14zM1 -118q-14 14 -14 33t14 32.5t33 13.5t32.5 -13.5t13.5 -32.5t-13.5 -33t-32.5 -14t-33 14zM161 -118q-14 14 -14 33t14 32.5t33 13.5t32.5 -13.5t13.5 -32.5t-13.5 -33 t-32.5 -14t-33 14z"></glyph><glyph glyph-name="uni0654" unicode="ٔ" d="M206 -3h-217v59h28q-24 23 -24 62q0 40 33.5 69t82.5 29q33 0 71 -18l-29 -54q-21 9 -42 9q-23 0 -37 -12.5t-14 -32.5q0 -23 17 -37.5t42 -14.5h89v-59z"></glyph><glyph glyph-name="uni0655" unicode="ٕ" d="M206 -205h-217v59h28q-24 22 -24 62t33.5 69t82.5 29q34 0 71 -18l-29 -54q-21 9 -42 9q-23 0 -37 -12.5t-14 -32.5q0 -23 17 -37.5t42 -14.5h89v-59z"></glyph><glyph glyph-name="uni064B" unicode="ً" d="M-10 116l299 51v-53l-300 -53zM-10 16l299 51v-53l-300 -53z"></glyph><glyph glyph-name="uni064C" unicode="ٌ" d="M330 97q0 -35 -22.5 -62t-57.5 -33l-95 -16q-13 -3 -27 -3q-36 0 -59 21t-30 61l-48 -9l-9 51l105 19q-3 -89 49 -89q6 0 10 1l10 2q-13 16 -18 43q-1 5 -1 16q0 40 27.5 69t69.5 29q35 0 62 -23t32 -57v1q2 -7 2 -21zM265.5 67.5q12.5 13.5 12.5 32.5q0 18 -14 30.5 t-32 12.5q-20 0 -32 -16t-10 -35q3 -16 15.5 -27t28.5 -11q19 0 31.5 13.5z"></glyph><glyph glyph-name="uni064D" unicode="ٍ" d="M-10 -14l299 51v-53l-300 -53zM-10 -114l299 51v-53l-300 -53z"></glyph><glyph glyph-name="uni064E" unicode="َ" d="M-10 16l299 51v-53l-300 -53z"></glyph><glyph glyph-name="uni064F" unicode="ُ" d="M260 164.5q29 -27.5 29 -68.5q0 -36 -22.5 -63.5t-57.5 -33.5l-202 -36l-9 52l117 21q-21 26 -21 61q0 39 28.5 67t69.5 28q39 0 68 -27.5zM223.5 63.5q12.5 13.5 12.5 32.5q0 20 -16 33t-36 10q-17 -4 -27.5 -18.5t-7.5 -31.5t15 -28t28 -11q19 0 31.5 13.5z"></glyph><glyph glyph-name="uni0650" unicode="ِ" d="M-10 -14l299 51v-53l-300 -53z"></glyph><glyph glyph-name="uni0651" unicode="ّ" d="M291 148v-69q0 -39 -26 -65.5t-64 -26.5q-36 0 -62 26q-24 -26 -62 -26q-39 0 -64.5 26t-25.5 66v70h55v-70q0 -17 9.5 -27t25.5 -10t26 10.5t10 26.5v70h54v-70q0 -17 9 -27t25 -10q17 0 26.5 10t9.5 27v69h54z"></glyph><glyph glyph-name="uni0652" unicode="ْ" d="M15.5 16q-28.5 29 -28.5 70t29 69.5t69 28.5t69 -29t29 -69q0 -41 -28.5 -70t-69.5 -29t-69.5 29zM116 54.5q13 12.5 13 31.5q0 18 -13 31t-31 13t-30 -13t-12 -31q0 -19 12 -31.5t30 -12.5t31 12.5z"></glyph><glyph glyph-name="uni0653" unicode="ٓ" d="M-13 0v32q0 44 22 70.5t59 26.5q23 0 40.5 -8.5t30 -17.5t15.5 -12q20 -14 33 -20t30 -6q13 0 18.5 7.5t5.5 26.5v33h64v-33q0 -46 -23.5 -72.5t-64.5 -26.5q-29 0 -48.5 9.5t-50.5 29.5l-17 11q-8 6 -15.5 10.5t-13.5 4.5q-20 0 -20 -33v-32h-65z"></glyph><glyph glyph-name="uni0651064F" d="M-2 220l117 21q-15 21 -19 44q-2 12 -2 18q0 38 28.5 66t69.5 28q39 0 68 -27.5t29 -68.5q0 -36 -22.5 -63.5t-57.5 -33.5l-202 -36zM156.5 325.5q-10.5 -14.5 -7.5 -31.5t15 -28t28 -11q19 0 31.5 13.5t12.5 32.5q0 20 -16 33t-36 10q-17 -4 -27.5 -18.5zM291 148v-69 q0 -39 -26 -65.5t-64 -26.5q-36 0 -62 26q-24 -26 -62 -26q-39 0 -64.5 26t-25.5 66v70h55v-70q0 -17 9.5 -27t25.5 -10t26 10.5t10 26.5v70h54v-70q0 -17 9 -27t25 -10q17 0 26.5 10t9.5 27v69h54z"></glyph><glyph glyph-name="uni0651064C" d="M69 209.5q-23 20.5 -30 60.5l-48 -9l-9 51l105 19q-3 -89 49 -89q6 0 10 1l10 2q-13 16 -18 43q-2 12 -2 17q0 39 28.5 68t69.5 29q35 0 62 -22.5t32 -56.5q2 -7 2 -21q0 -35 -22.5 -62t-57.5 -33l-95 -16q-9 -2 -26 -2q-37 0 -60 20.5zM200.5 332q-12.5 -16 -10.5 -35 q3 -16 15.5 -27t28.5 -11q18 0 31 13.5t13 31.5q0 17 -13.5 30.5t-31.5 13.5q-20 0 -32.5 -16zM258 148h54v-69q0 -39 -26 -65.5t-64 -26.5q-36 0 -62 26q-24 -26 -62 -26q-39 0 -64.5 26t-25.5 66v70h55v-70q0 -17 9.5 -27t25.5 -10t26 10.5t10 26.5v70h54v-70q0 -17 9 -27 t25 -10q17 0 26.5 10t9.5 27v69z"></glyph><glyph glyph-name="uni0651064E" d="M289 219l-300 -53l1 55l299 51v-53zM291 148v-69q0 -39 -26 -65.5t-64 -26.5q-36 0 -62 26q-24 -26 -62 -26q-39 0 -64.5 26t-25.5 66v70h55v-70q0 -17 9.5 -27t25.5 -10t26 10.5t10 26.5v70h54v-70q0 -17 9 -27t25 -10q17 0 26.5 10t9.5 27v69h54z"></glyph><glyph glyph-name="uni0651064B" d="M289 319l-300 -53l1 55l299 51v-53zM289 219l-300 -53l1 55l299 51v-53zM291 148v-69q0 -39 -26 -65.5t-64 -26.5q-36 0 -62 26q-24 -26 -62 -26q-39 0 -64.5 26t-25.5 66v70h55v-70q0 -17 9.5 -27t25.5 -10t26 10.5t10 26.5v70h54v-70q0 -17 9 -27t25 -10q17 0 26.5 10 t9.5 27v69h54z"></glyph><glyph glyph-name="uni06510650" d="M291 148v-69q0 -39 -26 -65.5t-64 -26.5q-36 0 -62 26q-24 -26 -62 -26q-39 0 -64.5 26t-25.5 66v70h55v-70q0 -17 9.5 -27t25.5 -10t26 10.5t10 26.5v70h54v-70q0 -17 9 -27t25 -10q17 0 26.5 10t9.5 27v69h54zM-10 -83l299 51v-53l-300 -53z"></glyph><glyph glyph-name="uni0651064D" d="M291 148v-69q0 -39 -26 -65.5t-64 -26.5q-36 0 -62 26q-24 -26 -62 -26q-39 0 -64.5 26t-25.5 66v70h55v-70q0 -17 9.5 -27t25.5 -10t26 10.5t10 26.5v70h54v-70q0 -17 9 -27t25 -10q17 0 26.5 10t9.5 27v69h54zM-10 -83l299 51v-53l-300 -53zM-10 -183l299 51v-53 l-300 -53z"></glyph><glyph glyph-name="NUL"></glyph><glyph glyph-name="sheen_dits" d="M81 14q-14 14 -14 33t14 32.5t33 13.5t32.5 -13.5t13.5 -32.5t-13.5 -33t-32.5 -14t-33 14zM341 14q-14 14 -14 33t14 32.5t33 13.5t32.5 -13.5t13.5 -32.5t-13.5 -33t-32.5 -14t-33 14zM211 145q-14 14 -14 33t14 32.5t33 13.5t32.5 -13.5t13.5 -32.5t-13.5 -33 t-32.5 -14t-33 14z"></glyph><glyph glyph-name="selah" d="M77 115q40 -41 121 -41v-74q-109 0 -163.5 60t-54.5 179h57q0 -83 40 -124z"></glyph><glyph glyph-name="serif_1"></glyph></font>
</defs>
</svg>
